<?xml version="1.0" standalone="no"?>
<!DOCTYPE svg PUBLIC "-//W3C//DTD SVG 1.1//EN" "http://www.w3.org/Graphics/SVG/1.1/DTD/svg11.dtd" >
<svg xmlns="http://www.w3.org/2000/svg" xmlns:xlink="http://www.w3.org/1999/xlink" version="1.1">
<metadata>
Created by FontForge 20170924 at Thu Jan 31 19:58:16 2019
 By www-data
Copyright \(c\) 2019 by MadeType. All rights reserved.
</metadata>
<defs>
<font id="MADESoulmaze" horiz-adv-x="848" >
  <font-face 
    font-family="MADE Soulmaze"
    font-weight="400"
    font-stretch="normal"
    units-per-em="1000"
    panose-1="2 0 5 5 0 0 0 2 0 4"
    ascent="800"
    descent="-200"
    x-height="700"
    cap-height="700"
    bbox="-118 -333 1437 1027"
    underline-thickness="50"
    underline-position="-100"
    unicode-range="U+0020-2265"
  />
<missing-glyph horiz-adv-x="280" 
 />
    <glyph glyph-name=".notdef" horiz-adv-x="280" 
 />
    <glyph glyph-name="B" unicode="B" horiz-adv-x="737" 
d="M582 360c75 -13 125 -84 125 -169c0 -128 -76 -191 -235 -191h-427v700h408c161 0 237 -50 237 -179c0 -85 -51 -147 -108 -154v-7zM293 529v-81h78c33 0 60 5 60 40s-27 41 -60 41h-78zM379 179c38 0 68 7 68 48c0 40 -30 48 -68 48h-90v-96h90z" />
    <glyph glyph-name="C" unicode="C" horiz-adv-x="827" 
d="M432 233c58 0 84 32 98 70h267c-14 -185 -163 -322 -373 -322c-234 0 -394 155 -394 369s160 369 394 369c210 0 359 -137 373 -322h-267c-14 38 -40 70 -98 70c-67 0 -111 -50 -111 -117s44 -117 111 -117z" />
    <glyph glyph-name="D" unicode="D" horiz-adv-x="821" 
d="M425 700c239 0 366 -134 366 -350s-127 -350 -366 -350h-380v700h380zM388 240c89 0 125 45 125 110s-36 110 -125 110h-76v-220h76z" />
    <glyph glyph-name="E" unicode="E" horiz-adv-x="669" 
d="M634 490h-322v-45h293v-190h-293v-45h322v-210h-589v700h589v-210z" />
    <glyph glyph-name="F" unicode="F" horiz-adv-x="659" 
d="M624 471h-313v-54h256v-200h-256v-217h-266v700h579v-229z" />
    <glyph glyph-name="G" unicode="G" horiz-adv-x="842" 
d="M443 247v127h354v-374h-171v43c-50 -39 -116 -62 -201 -62c-234 0 -395 155 -395 369s161 369 395 369c210 0 359 -134 372 -302h-267c-13 27 -45 50 -97 50c-67 0 -112 -50 -112 -117s33 -135 112 -137c33 -1 56 9 70 23v11h-60z" />
    <glyph glyph-name="H" unicode="H" horiz-adv-x="831" 
d="M519 700h267v-700h-267v231h-207v-231h-267v700h267v-231h207v231z" />
    <glyph glyph-name="I" unicode="I" horiz-adv-x="357" 
d="M45 700h267v-700h-267v700z" />
    <glyph glyph-name="J" unicode="J" horiz-adv-x="718" 
d="M673 700v-388c0 -227 -82 -331 -322 -331c-220 0 -321 122 -321 323h267c0 -48 19 -74 54 -74c43 0 55 24 55 82v150h-214v238h481z" />
    <glyph glyph-name="K" unicode="K" horiz-adv-x="799" 
d="M488 0l-109 231h-68v-231h-266v700h266v-231h67l91 231h276l-151 -338l180 -362h-286z" />
    <glyph glyph-name="L" unicode="L" horiz-adv-x="701" 
d="M311 238h360v-238h-626v700h266v-462z" />
    <glyph glyph-name="M" unicode="M" horiz-adv-x="1108" 
d="M639 700h424v-700h-267v462h-6l-94 -462h-283l-95 462h-6v-462h-267v700h425l81 -405h7z" />
    <glyph glyph-name="N" unicode="N" horiz-adv-x="865" 
d="M553 700h267v-700h-334l-167 348h-7v-348h-267v700h343l158 -348h7v348z" />
    <glyph glyph-name="O" unicode="O" 
d="M424 719c234 0 394 -155 394 -369s-160 -369 -394 -369s-394 155 -394 369s160 369 394 369zM424 232c63 0 115 53 115 118s-45 118 -115 118s-115 -53 -115 -118s52 -118 115 -118z" />
    <glyph glyph-name="P" unicode="P" horiz-adv-x="734" 
d="M402 700c203 0 302 -99 302 -271s-99 -271 -302 -271h-90v-158h-267v700h357zM366 377c52 0 78 12 78 52c0 41 -26 52 -78 52h-54v-104h54z" />
    <glyph glyph-name="Q" unicode="Q" 
d="M818 350c0 -111 -43 -207 -117 -272l108 -173h-286l-44 79c-18 -2 -36 -3 -55 -3c-234 0 -394 155 -394 369s160 369 394 369s394 -155 394 -369zM309 350c0 -65 52 -118 115 -118s115 53 115 118s-45 118 -115 118s-115 -53 -115 -118z" />
    <glyph glyph-name="R" unicode="R" horiz-adv-x="761" 
d="M460 0l-90 187h-58v-187h-267v700h357c203 0 302 -85 302 -257c0 -93 -29 -160 -87 -202l129 -241h-286zM376 500h-64v-113h64c44 0 68 15 68 56c0 42 -24 57 -68 57z" />
    <glyph glyph-name="S" unicode="S" horiz-adv-x="737" 
d="M385 -19c-263 0 -355 142 -355 255h252c0 -47 44 -62 79 -62c37 0 55 12 55 34c0 33 -44 39 -122 61c-165 46 -237 93 -237 208c0 231 209 242 323 242c144 0 306 -56 306 -240h-247c0 36 -27 55 -60 55c-31 0 -51 -11 -51 -38c0 -35 74 -50 141 -66s238 -34 238 -205
c0 -200 -141 -244 -322 -244z" />
    <glyph glyph-name="T" unicode="T" horiz-adv-x="760" 
d="M730 700v-238h-217v-462h-266v462h-217v238h700z" />
    <glyph glyph-name="U" unicode="U" horiz-adv-x="763" 
d="M452 700h266v-379c0 -226 -96 -340 -336 -340s-337 114 -337 340v379h267v-379c0 -62 25 -91 70 -91s70 29 70 91v379z" />
    <glyph glyph-name="V" unicode="V" horiz-adv-x="875" 
d="M549 700h301l-220 -700h-385l-220 700h302l102 -462h18z" />
    <glyph glyph-name="W" unicode="W" horiz-adv-x="1250" 
d="M929 700h296l-191 -700h-325l-81 348h-7l-81 -348h-324l-191 700h295l69 -405h9l95 405h264l94 -405h10z" />
    <glyph glyph-name="X" unicode="X" horiz-adv-x="816" 
d="M496 0l-80 231h-16l-79 -231h-296l157 364l-147 336h286l79 -231h16l80 231h286l-148 -336l157 -364h-295z" />
    <glyph glyph-name="Y" unicode="Y" horiz-adv-x="787" 
d="M762 700l-235 -504v-196h-267v196l-235 504h276l88 -262h9l88 262h276z" />
    <glyph glyph-name="Z" unicode="Z" horiz-adv-x="723" 
d="M683 238v-238h-643v267l271 187v6h-252v240h595v-278l-281 -177v-7h310z" />
    <glyph glyph-name="a" unicode="a" horiz-adv-x="921" 
d="M600 0l-30 111h-219l-31 -111h-295l238 700h394l239 -700h-296zM408 320h105l-39 142h-28z" />
    <glyph glyph-name="b" unicode="b" horiz-adv-x="785" 
d="M630 360c75 -13 125 -84 125 -169c0 -128 -76 -191 -235 -191h-475v700h456c161 0 237 -50 237 -179c0 -85 -51 -147 -108 -154v-7zM293 529v-81h125c34 0 61 5 61 40s-27 41 -61 41h-125zM427 179c38 0 68 7 68 48c0 40 -30 48 -68 48h-138v-96h138z" />
    <glyph glyph-name="c" unicode="c" horiz-adv-x="875" 
d="M451 233c58 0 104 32 117 70h277c-13 -185 -192 -322 -402 -322c-266 0 -413 155 -413 369c0 215 147 369 413 369c210 0 389 -136 402 -321h-277c-13 38 -59 70 -117 70c-78 0 -131 -51 -131 -118c0 -66 53 -117 131 -117z" />
    <glyph glyph-name="d" unicode="d" horiz-adv-x="859" 
d="M463 700c240 0 366 -134 366 -350s-126 -350 -366 -350h-418v700h418zM426 239c89 0 126 46 126 111s-37 110 -126 110h-114v-221h114z" />
    <glyph glyph-name="e" unicode="e" horiz-adv-x="716" 
d="M681 490h-370v-45h341v-190h-341v-46h370v-209h-636v700h636v-210z" />
    <glyph glyph-name="f" unicode="f" horiz-adv-x="707" 
d="M672 471h-361v-64h303v-200h-303v-207h-266v700h627v-229z" />
    <glyph glyph-name="g" unicode="g" horiz-adv-x="891" 
d="M492 247v127h354v-374h-172v43c-65 -39 -145 -62 -230 -62c-266 0 -414 155 -414 369c0 215 148 369 414 369c210 0 389 -136 402 -321h-277c-13 38 -59 70 -117 70c-78 0 -131 -51 -131 -118c0 -79 53 -136 131 -136c43 0 72 11 93 27v6h-53z" />
    <glyph glyph-name="h" unicode="h" horiz-adv-x="908" 
d="M596 700h267v-700h-267v231h-284v-231h-267v700h267v-231h284v231z" />
    <glyph glyph-name="i" unicode="i" horiz-adv-x="578" 
d="M533 462h-111v-224h111v-238h-488v238h111v224h-111v238h488v-238z" />
    <glyph glyph-name="j" unicode="j" horiz-adv-x="718" 
d="M163 700h510v-388c0 -227 -82 -331 -322 -331c-215 0 -321 120 -321 299v97h267v-84c0 -41 24 -63 54 -63c34 0 55 20 55 63v169h-243v238z" />
    <glyph glyph-name="k" unicode="k" horiz-adv-x="856" 
d="M536 0l-120 231h-104v-231h-267v700h267v-231h102l103 231h286l-169 -340l197 -360h-295z" />
    <glyph glyph-name="l" unicode="l" horiz-adv-x="740" 
d="M312 238h398v-238h-665v700h267v-462z" />
    <glyph glyph-name="m" unicode="m" horiz-adv-x="1155" 
d="M667 700h443v-700h-266v462h-16l-94 -462h-312l-94 462h-16v-462h-267v700h444l81 -405h16z" />
    <glyph glyph-name="n" unicode="n" horiz-adv-x="903" 
d="M591 700h267v-700h-314l-216 357h-16v-357h-267v700h324l206 -348h16v348z" />
    <glyph glyph-name="o" unicode="o" horiz-adv-x="908" 
d="M454 719c253 0 424 -119 424 -369c0 -249 -171 -369 -424 -369s-424 120 -424 369c0 250 171 369 424 369zM454 232c84 0 134 46 134 118s-50 119 -134 119s-134 -47 -134 -119s50 -118 134 -118z" />
    <glyph glyph-name="p" unicode="p" horiz-adv-x="772" 
d="M439 700c204 0 303 -99 303 -271s-99 -271 -303 -271h-128v-158h-266v700h394zM404 377c51 0 77 6 77 52s-26 52 -77 52h-93v-104h93z" />
    <glyph glyph-name="q" unicode="q" horiz-adv-x="907" 
d="M877 350c0 -124 -42 -216 -115 -277l105 -168h-286l-45 81c-26 -3 -54 -5 -82 -5c-254 0 -424 120 -424 369c0 250 170 369 424 369c253 0 423 -119 423 -369zM454 232c83 0 134 46 134 118s-51 119 -134 119c-84 0 -135 -47 -135 -119s51 -118 135 -118z" />
    <glyph glyph-name="r" unicode="r" horiz-adv-x="818" 
d="M517 0l-90 187h-115v-187h-267v700h413c204 0 303 -85 303 -257c0 -93 -29 -160 -88 -202l130 -241h-286zM312 500v-113h121c44 0 67 10 67 56c0 47 -23 57 -67 57h-121z" />
    <glyph glyph-name="s" unicode="s" horiz-adv-x="776" 
d="M405 -18c-264 0 -375 141 -375 255h252c0 -48 54 -63 99 -63c51 0 74 12 74 35c0 32 -83 39 -161 60c-165 46 -237 93 -237 209c0 230 229 241 343 241c144 0 325 -56 325 -240h-247c0 36 -37 56 -79 56c-43 0 -71 -11 -71 -38c0 -40 113 -51 180 -67
c67 -15 238 -34 238 -205c0 -200 -161 -243 -341 -243z" />
    <glyph glyph-name="t" unicode="t" horiz-adv-x="789" 
d="M759 700v-238h-231v-462h-267v462h-231v238h729z" />
    <glyph glyph-name="u" unicode="u" horiz-adv-x="839" 
d="M528 700h266v-360c0 -237 -127 -359 -374 -359c-248 0 -375 122 -375 359v360h267v-360c0 -79 45 -110 108 -110s108 31 108 110v360z" />
    <glyph glyph-name="v" unicode="v" horiz-adv-x="932" 
d="M606 700h301l-239 -700h-404l-239 700h301l121 -462h38z" />
    <glyph glyph-name="w" unicode="w" horiz-adv-x="1288" 
d="M968 700h295l-191 -700h-334l-81 348h-26l-81 -348h-334l-191 700h295l69 -405h19l94 405h284l94 -405h19z" />
    <glyph glyph-name="x" unicode="x" horiz-adv-x="835" 
d="M524 0l-85 231h-42l-86 -231h-286l157 364l-147 336h276l89 -231h35l89 231h277l-148 -336l157 -364h-286z" />
    <glyph glyph-name="y" unicode="y" horiz-adv-x="825" 
d="M800 700l-254 -504v-196h-267v196l-254 504h286l88 -252h27l88 252h286z" />
    <glyph glyph-name="z" unicode="z" horiz-adv-x="770" 
d="M711 441l-300 -190v-13h319v-238h-690v258l290 190v14h-271v238h652v-259z" />
    <glyph glyph-name="space" unicode=" " horiz-adv-x="280" 
 />
    <glyph glyph-name="one" unicode="1" horiz-adv-x="450" 
d="M177 700h228v-700h-238v490h-147v143z" />
    <glyph glyph-name="two" unicode="2" horiz-adv-x="681" 
d="M640 513c9 -292 -303 -232 -327 -313h327v-200h-600v137c0 148 85 206 156 244c65 34 174 44 175 112c0 25 -13 37 -37 37c-32 0 -42 -19 -42 -59h-242c0 182 149 248 289 248c111 0 295 -23 301 -206z" />
    <glyph glyph-name="three" unicode="3" horiz-adv-x="651" 
d="M401 390c97 4 234 -18 218 -203c-15 -178 -178 -206 -300 -206c-141 0 -289 69 -289 251h241c0 -40 11 -62 42 -62c25 0 37 19 37 57c0 40 -13 57 -75 57h-125v120l165 89v7h-247v200h521v-214l-188 -90v-6z" />
    <glyph glyph-name="four" unicode="4" horiz-adv-x="650" 
d="M558 317h67v-200h-67v-117h-248v117h-285v181l181 402h238l-161 -383h55l70 163h150v-163z" />
    <glyph glyph-name="five" unicode="5" horiz-adv-x="652" 
d="M485 432c95 -23 148 -111 135 -217c-23 -186 -159 -234 -302 -234c-140 0 -288 69 -288 251h241c0 -40 10 -62 42 -62c25 0 37 19 37 57c0 40 -13 57 -75 57h-208l19 416h480v-200h-254l-4 -75h7c53 18 123 18 170 7z" />
    <glyph glyph-name="six" unicode="6" horiz-adv-x="669" 
d="M473 445c104 -17 168 -100 165 -205c-7 -190 -114 -259 -291 -259c-176 0 -307 103 -315 279c-18 428 181 459 294 459c144 0 297 -59 297 -245h-248c0 41 -12 60 -45 60s-60 -32 -61 -135h6c42 39 115 59 198 46zM340 156c34 0 62 29 62 64s-24 64 -62 64
s-62 -29 -62 -64s28 -64 62 -64z" />
    <glyph glyph-name="seven" unicode="7" horiz-adv-x="603" 
d="M25 700h553v-219c-78 -52 -205 -251 -205 -481h-247c0 238 108 400 192 488v12h-293v200z" />
    <glyph glyph-name="eight" unicode="8" horiz-adv-x="681" 
d="M522 360c77 -14 129 -72 129 -173c0 -131 -121 -206 -311 -206s-310 75 -310 206c0 101 52 159 129 173v7c-60 21 -105 77 -101 163c5 136 114 189 282 189s278 -53 283 -189c3 -86 -42 -142 -101 -163v-7zM340 556c-36 0 -65 -25 -65 -55c0 -31 25 -56 65 -56
s65 25 65 56c0 30 -29 55 -65 55zM340 145c48 0 77 29 77 66c0 36 -34 66 -77 66c-42 0 -77 -30 -77 -66c0 -37 30 -66 77 -66z" />
    <glyph glyph-name="nine" unicode="9" horiz-adv-x="667" 
d="M635 440c19 -429 -180 -459 -294 -459c-144 0 -296 59 -296 245h247c0 -41 13 -60 45 -60c34 0 60 32 61 135h-5c-42 -39 -115 -61 -198 -46c-98 18 -165 100 -165 205c0 190 113 259 290 259s308 -104 315 -279zM327 416c38 0 62 29 62 64s-27 64 -62 64
c-34 0 -62 -29 -62 -64s24 -64 62 -64z" />
    <glyph glyph-name="zero" unicode="0" horiz-adv-x="668" 
d="M334 719c188 0 304 -136 304 -369s-116 -369 -304 -369c-187 0 -304 136 -304 369s117 369 304 369zM334 196c52 0 72 59 72 154s-20 154 -72 154c-51 0 -72 -59 -72 -154s21 -154 72 -154z" />
    <glyph glyph-name="acute" unicode="&#xb4;" horiz-adv-x="414" 
d="M122 758h247l-143 -208h-181z" />
    <glyph glyph-name="grave" unicode="`" horiz-adv-x="414" 
d="M293 758l76 -208h-181l-143 208h248z" />
    <glyph glyph-name="hungarumlaut" unicode="&#x2dd;" horiz-adv-x="682" 
d="M121 758h248l-143 -208h-181zM390 758h247l-142 -208h-181z" />
    <glyph glyph-name="circumflex" unicode="&#x2c6;" horiz-adv-x="683" 
d="M390 550l-41 113h-14l-42 -113h-248l143 208h307l143 -208h-248z" />
    <glyph glyph-name="dotaccent" unicode="&#x2d9;" horiz-adv-x="340" 
d="M170 789c69 0 125 -56 125 -125s-56 -125 -125 -125s-125 56 -125 125s56 125 125 125z" />
    <glyph glyph-name="dieresis" unicode="&#xa8;" horiz-adv-x="621" 
d="M170 789c69 0 125 -56 125 -125s-56 -125 -125 -125s-125 56 -125 125s56 125 125 125zM451 789c69 0 125 -56 125 -125s-56 -125 -125 -125s-125 56 -125 125s56 125 125 125z" />
    <glyph glyph-name="ring" unicode="&#x2da;" horiz-adv-x="398" 
d="M199 827c92 0 154 -61 154 -144c0 -84 -62 -144 -154 -144c-91 0 -154 60 -154 144c0 83 63 144 154 144zM199 641c22 0 41 19 41 42s-16 41 -41 41s-40 -18 -40 -41s18 -42 40 -42z" />
    <glyph glyph-name="macron" unicode="&#xaf;" horiz-adv-x="505" 
d="M45 758h415v-208h-415v208z" />
    <glyph glyph-name="caron" unicode="&#x2c7;" horiz-adv-x="683" 
d="M390 758h248l-143 -208h-307l-143 208h248l42 -114h14z" />
    <glyph glyph-name="tilde" unicode="&#x2dc;" horiz-adv-x="540" 
d="M371 770h124c0 -124 -4 -231 -128 -231c-92 0 -123 63 -159 63c-21 0 -29 -11 -29 -50h-134c0 151 44 233 150 233c63 0 117 -58 149 -58c20 0 27 11 27 43z" />
    <glyph glyph-name="breve" unicode="&#x2d8;" horiz-adv-x="536" 
d="M339 764h152c0 -131 -86 -225 -223 -225s-223 94 -223 225h152c0 -41 32 -74 71 -74s71 33 71 74z" />
    <glyph glyph-name="ogonek" unicode="&#x2db;" horiz-adv-x="322" 
d="M277 0c-85 -59 -57 -112 0 -90v-136c-44 -36 -167 -53 -213 18c-54 83 23 186 104 208h109z" />
    <glyph glyph-name="cedilla" unicode="&#xb8;" horiz-adv-x="340" 
d="M179 -38c92 -11 134 -74 108 -146c-22 -62 -95 -94 -242 -60v110c55 -19 83 -12 85 3c2 19 -16 19 -51 16v70l43 45h87z" />
    <glyph glyph-name="commaaccent.cap" horiz-adv-x="414" 
d="M121 -44h248l-143 -208h-181z" />
    <glyph glyph-name="Aogonek" unicode="&#x104;" horiz-adv-x="864" 
d="M839 0c-85 -59 -57 -112 0 -90v-136c-44 -36 -167 -53 -213 18c-54 83 23 186 104 208h-177l-26 111h-190l-25 -111h-287l210 700h394zM386 320h93l-33 142h-28z" />
    <glyph glyph-name="Ccedilla" unicode="&#xc7;" horiz-adv-x="827" 
d="M432 233c58 0 84 32 98 70h267c-13 -175 -147 -307 -339 -320l-16 -21c91 -11 134 -74 108 -146c-22 -62 -95 -94 -243 -60v110c55 -19 84 -12 86 3c2 19 -16 19 -51 16v70l28 29c-204 22 -340 169 -340 366c0 214 160 369 394 369c210 0 359 -137 373 -322h-267
c-14 38 -40 70 -98 70c-67 0 -111 -50 -111 -117s44 -117 111 -117z" />
    <glyph glyph-name="Eogonek" unicode="&#x118;" horiz-adv-x="668" 
d="M633 491h-322v-46h294v-190h-294v-45h322v-210c-85 -59 -57 -112 0 -90v-136c-43 -36 -167 -53 -213 18c-54 83 23 186 104 208h-479v700h588v-209z" />
    <glyph glyph-name="Iogonek" unicode="&#x12e;" horiz-adv-x="356" 
d="M311 0c-85 -59 -57 -112 0 -90v-136c-43 -36 -167 -53 -213 18c-54 83 23 186 104 208h-157v700h266v-700z" />
    <glyph glyph-name="Scedilla" unicode="&#x15e;" horiz-adv-x="737" 
d="M707 225c0 -187 -122 -237 -285 -243l-15 -20c91 -11 134 -74 108 -146c-22 -62 -95 -94 -243 -60v110c55 -19 84 -12 86 3c2 19 -16 19 -51 16v70l27 28c-224 18 -304 148 -304 253h253c0 -47 43 -62 78 -62c37 0 55 12 55 35c0 32 -44 38 -121 60
c-165 46 -237 93 -237 208c0 231 208 242 322 242c144 0 306 -56 306 -240h-247c0 36 -27 55 -60 55c-31 0 -51 -11 -51 -37c0 -36 74 -51 141 -67c67 -15 238 -34 238 -205z" />
    <glyph glyph-name="Uogonek" unicode="&#x172;" horiz-adv-x="763" 
d="M451 700h267v-379c0 -193 -71 -304 -242 -332c-66 -55 -38 -100 16 -79v-136c-44 -36 -168 -53 -214 18c-45 69 1 152 64 190c-211 12 -297 125 -297 339v379h266v-379c0 -62 25 -91 70 -91s70 29 70 91v379z" />
    <glyph glyph-name="aogonek" unicode="&#x105;" horiz-adv-x="921" 
d="M896 0c-85 -59 -57 -112 0 -90v-136c-44 -36 -167 -53 -214 18c-54 83 24 186 105 208h-187l-30 111h-219l-30 -111h-296l239 700h393zM408 320h105l-38 142h-29z" />
    <glyph glyph-name="ccedilla" unicode="&#xe7;" horiz-adv-x="875" 
d="M452 233c58 0 103 32 117 70h276c-12 -173 -170 -304 -362 -320l-16 -21c91 -11 133 -74 107 -146c-22 -62 -95 -94 -242 -60v110c55 -19 83 -12 85 3c3 19 -15 19 -50 16v70l26 28c-234 19 -363 167 -363 367c0 214 148 369 414 369c210 0 388 -137 401 -322h-276
c-14 38 -59 70 -117 70c-78 0 -131 -50 -131 -117s53 -117 131 -117z" />
    <glyph glyph-name="eogonek" unicode="&#x119;" horiz-adv-x="716" 
d="M681 491h-370v-46h341v-190h-341v-45h370v-210c-85 -59 -57 -112 0 -90v-136c-44 -36 -167 -53 -214 18c-54 83 24 186 105 208h-527v700h636v-209z" />
    <glyph glyph-name="iogonek" unicode="&#x12f;" horiz-adv-x="578" 
d="M533 462h-111v-224h111v-238c-85 -59 -57 -112 0 -90v-136c-44 -36 -167 -53 -214 18c-54 83 24 186 105 208h-379v238h111v224h-111v238h488v-238z" />
    <glyph glyph-name="scedilla" unicode="&#x15f;" horiz-adv-x="776" 
d="M746 225c0 -187 -139 -237 -304 -243l-15 -20c91 -11 133 -74 107 -146c-22 -62 -95 -94 -242 -60v110c55 -19 83 -12 85 3c3 19 -15 19 -50 16v70l26 28c-226 18 -323 148 -323 253h253c0 -47 54 -62 98 -62c52 0 75 12 75 35c0 32 -84 38 -161 60
c-165 46 -237 93 -237 208c0 231 228 242 342 242c144 0 325 -56 325 -240h-247c0 36 -37 55 -79 55c-43 0 -71 -10 -71 -37c0 -40 114 -51 180 -67c67 -15 238 -34 238 -205z" />
    <glyph glyph-name="uogonek" unicode="&#x173;" horiz-adv-x="839" 
d="M528 700h266v-360c0 -204 -94 -322 -277 -351c-66 -55 -38 -100 15 -79v-136c-44 -36 -167 -53 -213 18c-45 69 1 152 64 190c-223 12 -338 133 -338 358v360h267v-360c0 -79 45 -110 108 -110s108 31 108 110v360z" />
    <glyph glyph-name="period" unicode="." horiz-adv-x="310" 
d="M155 231c69 0 125 -55 125 -124s-56 -125 -125 -125s-125 56 -125 125s56 124 125 124z" />
    <glyph glyph-name="comma" unicode="," horiz-adv-x="363" 
d="M318 119v-22l-132 -253h-171l76 275h227z" />
    <glyph glyph-name="colon" unicode=":" horiz-adv-x="310" 
d="M155 231c69 0 125 -55 125 -124s-56 -125 -125 -125s-125 56 -125 125s56 124 125 124zM155 331c-69 0 -125 56 -125 125s56 125 125 125s125 -56 125 -125s-56 -125 -125 -125z" />
    <glyph glyph-name="semicolon" unicode=";" horiz-adv-x="353" 
d="M198 331c-69 0 -125 56 -125 125s56 125 125 125s125 -56 125 -125s-56 -125 -125 -125zM15 -156l77 275h227v-22l-132 -253h-172z" />
    <glyph glyph-name="hyphen" unicode="-" horiz-adv-x="581" 
d="M45 369h491v-181h-491v181z" />
    <glyph glyph-name="plus" unicode="+" horiz-adv-x="581" 
d="M536 369v-181h-155v-155h-181v155h-155v181h155v155h181v-155h155z" />
    <glyph glyph-name="multiply" unicode="&#xd7;" horiz-adv-x="535" 
d="M505 388l-110 -109l110 -110l-128 -128l-110 110l-109 -110l-128 128l109 110l-109 109l128 128l109 -109l110 109z" />
    <glyph glyph-name="equal" unicode="=" horiz-adv-x="581" 
d="M45 477h491v-181h-491v181zM45 80v181h491v-181h-491z" />
    <glyph glyph-name="divide" unicode="&#xf7;" horiz-adv-x="581" 
d="M45 369h491v-181h-491v181zM291 399c-69 0 -125 56 -125 125s56 125 125 125s125 -56 125 -125s-56 -125 -125 -125zM291 158c69 0 125 -56 125 -125s-56 -125 -125 -125s-125 56 -125 125s56 125 125 125z" />
    <glyph glyph-name="guilsinglright" unicode="&#x203a;" horiz-adv-x="410" 
d="M261 488l119 -209l-119 -210h-231v24l106 186l-106 185v24h231z" />
    <glyph glyph-name="guillemotright" unicode="&#xbb;" horiz-adv-x="735" 
d="M586 488l119 -209l-119 -210h-231v24l106 186l-106 185v24h231zM261 488l118 -209l-118 -210h-231v24l106 186l-106 185v24h231z" />
    <glyph glyph-name="guillemotleft" unicode="&#xab;" horiz-adv-x="735" 
d="M380 488v-24l-106 -185l106 -186v-24h-231l-119 210l119 209h231zM705 488v-24l-106 -185l106 -186v-24h-231l-119 210l119 209h231z" />
    <glyph glyph-name="guilsinglleft" unicode="&#x2039;" horiz-adv-x="409" 
d="M379 488v-24l-106 -185l106 -186v-24h-231l-118 210l118 209h231z" />
    <glyph glyph-name="degree" unicode="&#xb0;" horiz-adv-x="396" 
d="M198 719c99 0 168 -66 168 -157s-69 -157 -168 -157c-100 0 -168 66 -168 157s68 157 168 157zM198 515c25 0 46 21 46 47s-18 47 -46 47s-46 -21 -46 -47s20 -47 46 -47z" />
    <glyph glyph-name="numbersign" unicode="#" horiz-adv-x="778" 
d="M720 382h-114l-13 -63h118l-38 -171h-118l-32 -148h-180l32 148h-60l-32 -148h-181l32 148h-114l38 171h113l14 63h-117l38 171h116l32 147h181l-32 -147h60l32 147h181l-32 -147h114zM412 319l14 63h-60l-14 -63h60z" />
    <glyph glyph-name="percent" unicode="%" horiz-adv-x="1010" 
d="M447 524c0 -113 -84 -195 -208 -195s-209 82 -209 195s85 195 209 195s208 -82 208 -195zM179 524c0 -34 27 -62 60 -62s60 28 60 62s-23 62 -60 62s-60 -28 -60 -62zM771 371c124 0 209 -81 209 -195c0 -113 -85 -195 -209 -195c-123 0 -208 82 -208 195
c0 114 85 195 208 195zM771 114c33 0 60 28 60 62c0 35 -23 62 -60 62s-60 -27 -60 -62c0 -34 27 -62 60 -62zM656 700h153l-457 -700h-153z" />
    <glyph glyph-name="asciicircum" unicode="^" horiz-adv-x="626" 
d="M362 461l-40 126h-18l-40 -126h-219l115 239h306l115 -239h-219z" />
    <glyph glyph-name="bar" unicode="|" horiz-adv-x="271" 
d="M45 748h181v-843h-181v843z" />
    <glyph glyph-name="brokenbar" unicode="&#xa6;" horiz-adv-x="271" 
d="M45 748h181v-367h-181v367zM45 -95v367h181v-367h-181z" />
    <glyph glyph-name="Euro" unicode="&#x20ac;" horiz-adv-x="888" 
d="M481 233c65 0 97 32 110 70h267c-13 -185 -162 -321 -372 -321c-205 0 -354 118 -387 292h-89l29 67h53v9v9h-82l29 67h60c33 174 182 293 387 293c210 0 359 -137 372 -321h-267c-13 37 -45 69 -110 69c-44 0 -78 -14 -97 -41h151l-29 -67h-143v-9v-9h134l-29 -67h-84
c20 -27 53 -41 97 -41z" />
    <glyph glyph-name="dollar" unicode="$" horiz-adv-x="737" 
d="M707 225c0 -187 -123 -237 -286 -243v-103h-105v106c-210 23 -286 149 -286 251h253c0 -47 43 -62 78 -62c37 0 56 12 56 35c0 32 -45 38 -122 60c-165 46 -237 93 -237 208c0 192 144 232 258 240v105h105v-105c132 -10 265 -71 265 -238h-247c0 36 -27 56 -59 56
c-31 0 -52 -12 -52 -38c0 -36 75 -51 141 -67c67 -15 238 -34 238 -205z" />
    <glyph glyph-name="sterling" unicode="&#xa3;" horiz-adv-x="716" 
d="M368 200h323v-200h-666v200h76v79h-76v104h76v81c0 227 190 255 301 255c140 0 289 -66 289 -248h-242c0 40 -10 59 -42 59c-24 0 -39 -19 -39 -69v-78h239v-104h-239v-79z" />
    <glyph glyph-name="yen" unicode="&#xa5;" horiz-adv-x="787" 
d="M762 700l-157 -336h98v-104h-147l-25 -55h172v-104h-176v-101h-267v101h-176v104h172l-25 55h-147v104h98l-157 336h276l88 -262h9l88 262h276z" />
    <glyph glyph-name="currency" unicode="&#xa4;" horiz-adv-x="670" 
d="M592 257c0 -53 -15 -101 -43 -140l91 -90l-74 -74l-96 96c-38 -21 -84 -32 -135 -32s-97 11 -135 32l-96 -96l-74 74l91 90c-28 39 -43 87 -43 140c0 54 15 102 43 141l-91 90l74 74l96 -96c38 21 84 32 135 32s97 -11 135 -32l96 96l74 -74l-91 -90
c28 -39 43 -87 43 -141zM335 188c37 0 67 31 67 69c0 39 -26 70 -67 70s-67 -31 -67 -70c0 -38 30 -69 67 -69z" />
    <glyph glyph-name="cent" unicode="&#xa2;" horiz-adv-x="666" 
d="M347 171c43 0 62 23 72 51h217c-9 -123 -101 -219 -246 -237v-106h-104v106c-156 17 -256 113 -256 272c0 160 100 253 256 270v109h104v-109c145 -17 237 -111 246 -235h-217c-10 28 -29 52 -72 52c-50 0 -83 -37 -83 -87c0 -49 33 -86 83 -86z" />
    <glyph glyph-name="question" unicode="?" horiz-adv-x="650" 
d="M619 513c6 -143 -59 -208 -148 -208h-85v-45h-195v175h90c54 0 69 12 70 58c0 26 -13 37 -38 37c-31 0 -42 -22 -42 -62h-241c0 182 148 251 289 251c111 0 294 -23 300 -206zM293 231c69 0 125 -55 125 -125c0 -69 -56 -124 -125 -124s-125 55 -125 124
c0 70 56 125 125 125z" />
    <glyph glyph-name="exclam" unicode="!" horiz-adv-x="326" 
d="M277 260h-228l-19 440h266zM163 231c69 0 125 -55 125 -125c0 -69 -56 -125 -125 -125s-125 56 -125 125c0 70 56 125 125 125z" />
    <glyph glyph-name="afii61352" unicode="&#x2116;" horiz-adv-x="1238" 
d="M1020 405c-100 0 -168 66 -168 157s68 157 168 157s168 -66 168 -157s-68 -157 -168 -157zM1020 609c-28 0 -46 -21 -46 -47s21 -47 46 -47s46 21 46 47s-18 47 -46 47zM1208 374v-105h-388v-269h-334l-167 348h-7v-348h-267v700h343l158 -347h7v347h267v-326h388z" />
    <glyph glyph-name="Bitcoin" unicode="&#x20bf;" horiz-adv-x="727" 
d="M697 192c0 -128 -75 -191 -233 -191v-122h-104v121h-47v-121h-105v121h-163v700h163v122h105v-122h47v122h104v-122c147 -5 216 -55 216 -179c0 -84 -50 -147 -108 -154v-7c75 -13 125 -83 125 -168zM369 179c38 0 68 8 68 48c0 41 -30 48 -68 48h-80v-96h80zM293 529
v-81h68c33 0 60 6 60 41s-27 40 -60 40h-68z" />
    <glyph glyph-name="Ruble" unicode="&#x20bd;" horiz-adv-x="776" 
d="M443 178h-89v-25h167v-104h-167v-49h-267v49h-82v104h82v53h-82v104h82v390h356c204 0 303 -99 303 -271s-99 -251 -303 -251zM408 491h-54v-123h54c51 0 77 15 77 61c0 47 -26 62 -77 62z" />
    <glyph glyph-name="bracketleft" unicode="[" horiz-adv-x="385" 
d="M355 586h-129v-519h129v-162h-310v843h310v-162z" />
    <glyph glyph-name="fraction" unicode="&#x2044;" horiz-adv-x="497" 
d="M305 748h172l-286 -843h-171z" />
    <glyph glyph-name="parenleft" unicode="(" horiz-adv-x="455" 
d="M247 313c0 -163 65 -253 188 -345l-95 -138c-198 118 -310 278 -310 483s112 365 310 482l95 -138c-123 -91 -188 -181 -188 -344z" />
    <glyph glyph-name="parenright" unicode=")" horiz-adv-x="455" 
d="M114 795c198 -117 311 -277 311 -482s-113 -365 -311 -483l-94 138c122 92 187 182 187 345s-65 253 -187 344z" />
    <glyph glyph-name="backslash" unicode="\" horiz-adv-x="498" 
d="M192 748l286 -843h-172l-286 843h172z" />
    <glyph glyph-name="bracketright" unicode="]" horiz-adv-x="384" 
d="M30 748h309v-843h-309v162h128v519h-128v162z" />
    <glyph glyph-name="plusminus" unicode="&#xb1;" horiz-adv-x="581" 
d="M45 -10v181h491v-181h-491zM381 546h155v-181h-155v-155h-181v155h-155v181h155v155h181v-155z" />
    <glyph glyph-name="endash" unicode="&#x2013;" horiz-adv-x="648" 
d="M45 369h558v-181h-558v181z" />
    <glyph glyph-name="emdash" unicode="&#x2014;" horiz-adv-x="714" 
d="M45 369h624v-181h-624v181z" />
    <glyph glyph-name="underscore" unicode="_" horiz-adv-x="581" 
d="M45 -10h491v-181h-491v181z" />
    <glyph glyph-name="questiondown" unicode="&#xbf;" horiz-adv-x="651" 
d="M337 -144c32 0 42 23 42 63h242c0 -182 -149 -252 -289 -252c-111 0 -294 23 -301 207c-5 143 60 207 149 207h85v46h194v-175h-90c-53 0 -68 -13 -69 -59c0 -25 13 -37 37 -37zM358 155c-69 0 -125 56 -125 125s56 125 125 125s125 -56 125 -125s-56 -125 -125 -125z
" />
    <glyph glyph-name="exclamdown" unicode="&#xa1;" horiz-adv-x="356" 
d="M292 127l19 -441h-266l19 441h228zM178 155c-69 0 -125 56 -125 125s56 125 125 125s125 -56 125 -125s-56 -125 -125 -125z" />
    <glyph glyph-name="notequal" unicode="&#x2260;" horiz-adv-x="581" 
d="M536 572l-55 -95h55v-181h-159l-20 -35h179v-181h-284l-55 -95h-152l55 95h-55v181h159l20 35h-179v181h284l55 95h152z" />
    <glyph glyph-name="section" unicode="&#xa7;" horiz-adv-x="792" 
d="M762 237c0 -92 -30 -150 -81 -185c6 -18 9 -38 9 -61c0 -195 -137 -237 -313 -237c-257 0 -347 138 -347 248h246c0 -46 43 -60 77 -60c36 0 54 11 54 33c0 32 -43 38 -119 59c-161 46 -231 91 -231 204c0 92 34 148 82 182c-7 18 -10 39 -10 63c0 225 203 236 315 236
c140 0 298 -55 298 -234h-241c0 35 -27 54 -58 54c-30 0 -50 -11 -50 -37c0 -35 72 -49 137 -65c65 -15 232 -33 232 -200zM321 257c0 -35 71 -50 136 -65c14 5 22 15 22 29c0 32 -43 38 -119 59c-8 2 -15 4 -22 7c-11 -6 -17 -16 -17 -30z" />
    <glyph glyph-name="quotedblright" unicode="&#x201d;" horiz-adv-x="627" 
d="M333 700v-21l-132 -254h-171l76 275h227zM597 700v-21l-132 -254h-172l76 275h228z" />
    <glyph glyph-name="quotedblleft" unicode="&#x201c;" horiz-adv-x="627" 
d="M425 700h172l-76 -275h-228v21zM162 700h171l-76 -275h-227v21z" />
    <glyph glyph-name="quotedbl" unicode="&#x22;" horiz-adv-x="523" 
d="M45 700h190v-275h-190v275zM287 700h191v-275h-191v275z" />
    <glyph glyph-name="quotesingle" unicode="'" horiz-adv-x="281" 
d="M45 700h191v-275h-191v275z" />
    <glyph glyph-name="quotedblbase" unicode="&#x201e;" horiz-adv-x="627" 
d="M318 118v-21l-131 -254h-172l76 275h227zM582 118v-21l-132 -254h-171l76 275h227z" />
    <glyph glyph-name="quotesinglbase" unicode="&#x201a;" horiz-adv-x="363" 
d="M318 118v-21l-131 -254h-172l76 275h227z" />
    <glyph glyph-name="quoteleft" unicode="&#x2018;" horiz-adv-x="363" 
d="M162 700h171l-76 -275h-227v21z" />
    <glyph glyph-name="quoteright" unicode="&#x2019;" horiz-adv-x="364" 
d="M334 700v-21l-132 -254h-172l76 275h228z" />
    <glyph glyph-name="slash" unicode="/" horiz-adv-x="497" 
d="M305 748h172l-286 -843h-171z" />
    <glyph glyph-name="minus" unicode="&#x2212;" horiz-adv-x="581" 
d="M45 369h491v-181h-491v181z" />
    <glyph glyph-name="asciitilde" unicode="~" horiz-adv-x="660" 
d="M459 193c-123 0 -165 63 -212 63c-28 0 -39 -11 -39 -50h-178c0 151 57 232 199 232c85 0 156 -57 199 -57c27 0 36 10 36 43h166c0 -124 -6 -231 -171 -231z" />
    <glyph glyph-name="approxequal" unicode="&#x2248;" horiz-adv-x="690" 
d="M475 318c-124 0 -165 63 -212 63c-29 0 -39 -11 -39 -50h-179c0 151 58 233 199 233c85 0 157 -58 200 -58c26 0 35 11 35 43h166c0 -124 -5 -231 -170 -231zM475 57c-124 0 -165 63 -212 63c-29 0 -39 -11 -39 -50h-179c0 151 58 232 199 232c85 0 157 -57 200 -57
c26 0 35 11 35 43h166c0 -124 -5 -231 -170 -231z" />
    <glyph glyph-name="asterisk" unicode="*" horiz-adv-x="467" 
d="M437 495l-97 -21l69 -67l-122 -89l-53 90l-53 -90l-122 89l69 67l-98 21l47 144l95 -45l-13 105h150l-13 -105l95 45z" />
    <glyph glyph-name="ampersand" unicode="&#x26;" horiz-adv-x="817" 
d="M375 450h422v-177h-114v-38c0 -139 -68 -254 -317 -254c-217 0 -336 75 -336 207c0 87 52 159 129 172v7c-59 8 -111 72 -111 158c0 133 110 194 329 194c144 0 306 -57 306 -241h-248c0 33 -24 56 -60 56c-35 0 -62 -6 -62 -42s28 -42 62 -42zM435 246v27h-68
c-39 0 -70 -8 -70 -49c0 -42 34 -50 74 -50c48 0 64 22 64 72z" />
    <glyph glyph-name="greater" unicode="&#x3e;" horiz-adv-x="615" 
d="M45 586l525 -114v-307l-525 -115v210l335 49v19l-335 48v210z" />
    <glyph glyph-name="less" unicode="&#x3c;" horiz-adv-x="616" 
d="M571 376l-336 -48v-19l336 -49v-210l-526 115v307l526 114v-210z" />
    <glyph glyph-name="at" unicode="@" horiz-adv-x="1347" 
d="M705 815c356 0 622 -187 611 -522c-7 -211 -103 -312 -281 -312c-92 0 -191 36 -251 136c-30 -72 -91 -136 -196 -136c-152 0 -271 102 -271 276s119 267 271 267c61 0 105 -24 137 -59h7l1 51h210v-234c0 -59 33 -90 77 -90c68 0 82 58 82 104c0 211 -152 310 -397 310
c-169 0 -456 -34 -456 -348c0 -224 113 -328 344 -328v-208c-353 0 -563 176 -563 536c0 357 278 557 675 557zM640 172c52 0 84 41 84 85s-32 85 -84 85c-58 0 -94 -36 -94 -85c0 -48 36 -85 94 -85z" />
    <glyph glyph-name="greaterequal" unicode="&#x2265;" horiz-adv-x="615" 
d="M45 -56v181h525v-181h-525zM45 699l525 -114v-307l-525 -114v209l335 49v19l-335 49v209z" />
    <glyph glyph-name="lessequal" unicode="&#x2264;" horiz-adv-x="616" 
d="M45 -56v181h526v-181h-526zM571 490l-336 -49v-19l336 -49v-209l-526 114v307l526 114v-209z" />
    <glyph glyph-name="paragraph" unicode="&#xb6;" horiz-adv-x="691" 
d="M245 748h401v-843h-181v681h-39v-681h-181v413c-119 0 -215 96 -215 215c0 118 96 215 215 215z" />
    <glyph glyph-name="braceleft" unicode="{" horiz-adv-x="452" 
d="M317 439c0 -50 -16 -86 -42 -111c26 -25 42 -61 42 -111v-84c0 -70 41 -88 105 -88v-179c-201 0 -307 22 -307 194v116c0 75 -49 89 -95 89v126c46 0 95 14 95 88v116c0 173 106 195 307 195v-179c-64 0 -105 -18 -105 -88v-84z" />
    <glyph glyph-name="braceright" unicode="}" horiz-adv-x="452" 
d="M337 479c0 -74 49 -88 95 -88v-126c-46 0 -95 -14 -95 -89v-116c0 -172 -106 -194 -307 -194v179c64 0 105 18 105 88v84c0 50 16 86 42 111c-26 25 -42 61 -42 111v84c0 70 -41 88 -105 88v179c201 0 307 -22 307 -195v-116z" />
    <glyph glyph-name="OE" unicode="&#x152;" horiz-adv-x="1122" 
d="M1087 491h-322v-46h294v-190h-294v-45h322v-210h-673c-228 0 -384 141 -384 350s156 350 384 350h673v-209zM499 235v230h-85c-68 0 -112 -51 -112 -115c0 -63 50 -115 112 -115h85z" />
    <glyph glyph-name="AE" unicode="&#xc6;" horiz-adv-x="1120" 
d="M1085 491h-321v-46h293v-190h-293v-45h321v-210h-588v111h-161l-25 -111h-286l210 700h850v-209zM385 321h112v141h-79z" />
    <glyph glyph-name="Dcroat" unicode="&#x110;" horiz-adv-x="832" 
d="M436 700c240 0 366 -134 366 -350s-126 -350 -366 -350h-379v279h-77v143h77v278h379zM399 240c89 0 126 45 126 110s-37 111 -126 111h-76v-39h109v-143h-109v-39h76z" />
    <glyph glyph-name="Oslash" unicode="&#xd8;" 
d="M729 594c57 -63 89 -147 89 -244c0 -214 -160 -369 -394 -369c-94 0 -175 25 -240 69l-56 -56l-60 61l51 51c-57 64 -89 148 -89 244c0 215 160 369 394 369c94 0 175 -25 240 -68l56 55l60 -60zM309 350c0 -16 4 -31 9 -45l154 154c-14 6 -30 9 -48 9
c-70 0 -115 -53 -115 -118zM424 232c63 0 115 53 115 118c0 16 -3 32 -8 46l-154 -154c14 -6 30 -10 47 -10z" />
    <glyph glyph-name="Thorn" unicode="&#xde;" horiz-adv-x="733" 
d="M401 621c203 0 302 -99 302 -271s-99 -271 -302 -271h-90v-79h-266v700h266v-79h90zM366 298c51 0 77 12 77 52c0 41 -26 52 -77 52h-55v-104h55z" />
    <glyph glyph-name="Lslash" unicode="&#x141;" horiz-adv-x="701" 
d="M316 238h360v-238h-627v246l-54 -15v181l54 15v273h267v-200l131 36v-181l-131 -36v-81z" />
    <glyph glyph-name="Hbar" unicode="&#x126;" horiz-adv-x="830" 
d="M827 656v-133h-42v-523h-266v231h-208v-231h-266v523h-42v133h42v44h266v-44h208v44h266v-44h42zM519 469v54h-208v-54h208z" />
    <glyph glyph-name="Eng" unicode="&#x14a;" horiz-adv-x="865" 
d="M553 700h267v-700c0 -226 -82 -321 -322 -321v239c43 0 55 24 55 82h-66l-168 348h-7v-348h-267v700h343l159 -347h6v347z" />
    <glyph glyph-name="Tbar" unicode="&#x166;" horiz-adv-x="760" 
d="M730 462h-217v-112h136v-133h-136v-217h-267v217h-136v133h136v112h-216v238h700v-238z" />
    <glyph glyph-name="germandbls" unicode="&#xdf;" horiz-adv-x="722" 
d="M691 179c3 -152 -96 -198 -272 -198c-24 0 -47 3 -67 7v190c22 0 87 -3 75 58c-6 31 -35 34 -35 98c0 57 26 71 27 114c1 17 1 58 -44 58c-52 0 -57 -69 -57 -156v-350h-273v350c0 209 77 369 335 369c199 0 281 -111 281 -210c0 -110 -54 -125 -54 -171
c0 -44 82 -47 84 -159z" />
    <glyph glyph-name="copyright" unicode="&#xa9;" horiz-adv-x="927" 
d="M463 772c239 0 434 -188 434 -419c0 -232 -195 -420 -434 -420s-433 188 -433 420c0 231 194 419 433 419zM463 55c172 0 312 134 312 298s-140 297 -312 297s-312 -133 -312 -297s140 -298 312 -298zM471 403c-29 0 -48 -21 -48 -50s19 -51 48 -51c25 0 37 14 43 30h127
c-6 -80 -72 -139 -173 -139c-110 0 -182 55 -182 160c0 104 72 159 182 159c101 0 167 -59 173 -139h-127c-6 17 -18 30 -43 30z" />
    <glyph glyph-name="registered" unicode="&#xae;" horiz-adv-x="927" 
d="M629 388c0 -39 -10 -69 -35 -90l54 -99h-138l-34 71h-38v-71h-135v308h183c105 0 143 -43 143 -119zM473 413h-35v-50h35c20 0 30 7 30 25c0 19 -10 25 -30 25zM464 772c239 0 433 -188 433 -419c0 -232 -194 -420 -433 -420s-434 188 -434 420c0 231 195 419 434 419z
M464 55c172 0 311 134 311 298s-139 297 -311 297s-312 -133 -312 -297s140 -298 312 -298z" />
    <glyph glyph-name="eth" unicode="&#xf0;" horiz-adv-x="678" 
d="M515 664c92 -98 147 -228 129 -397c-20 -189 -119 -286 -307 -286c-189 0 -307 118 -307 274c0 152 116 325 374 247c-17 34 -42 65 -72 94l-147 -55l-47 125l71 26c-43 28 -75 44 -75 44s91 74 130 96c46 -19 91 -43 133 -70l134 49l46 -125zM337 170c54 0 88 37 88 85
c0 49 -34 85 -88 85c-55 0 -89 -36 -89 -85c0 -48 34 -85 89 -85z" />
    <glyph glyph-name="oe" unicode="&#x153;" horiz-adv-x="1220" 
d="M1185 491h-370v-46h341v-190h-341v-45h370v-210h-741c-247 0 -413 107 -414 350c1 243 167 350 414 350h741v-209zM548 235v230h-104c-82 0 -131 -45 -131 -115s49 -115 131 -115h104z" />
    <glyph glyph-name="ae" unicode="&#xe6;" horiz-adv-x="1235" 
d="M1200 491h-369v-46h341v-190h-341v-45h369v-210h-636v111h-224l-29 -111h-286l229 700h946v-209zM394 320h170v142h-133z" />
    <glyph glyph-name="dcroat" unicode="&#x111;" horiz-adv-x="870" 
d="M474 700c240 0 366 -134 366 -350s-126 -350 -366 -350h-418v279h-76v143h76v278h418zM437 240c89 0 125 45 125 110s-36 111 -125 111h-114v-39h108v-143h-108v-39h114z" />
    <glyph glyph-name="oslash" unicode="&#xf8;" horiz-adv-x="907" 
d="M777 614c64 -61 100 -148 100 -263c0 -250 -170 -370 -423 -370c-99 0 -185 19 -253 56l-43 -43l-61 61l33 33c-64 60 -100 148 -100 263c0 249 170 368 424 368c98 0 184 -18 253 -55l42 43l61 -61zM319 351c0 -23 5 -43 15 -60l170 171c-15 4 -32 7 -50 7
c-84 0 -135 -46 -135 -118zM454 232c83 0 134 47 134 119c0 22 -5 42 -14 59l-171 -171c15 -4 32 -7 51 -7z" />
    <glyph glyph-name="thorn" unicode="&#xfe;" horiz-adv-x="772" 
d="M439 621c203 0 303 -99 303 -271s-100 -271 -303 -271h-128v-79h-266v700h266v-79h128zM404 298c51 0 77 6 77 52s-26 52 -77 52h-93v-104h93z" />
    <glyph glyph-name="lslash" unicode="&#x142;" horiz-adv-x="744" 
d="M316 238h398v-238h-665v246l-54 -15v181l54 15v273h267v-200l130 36v-181l-130 -36v-81z" />
    <glyph glyph-name="hbar" unicode="&#x127;" horiz-adv-x="907" 
d="M904 656v-133h-41v-523h-267v231h-284v-231h-267v523h-42v133h42v44h267v-44h284v44h267v-44h41zM596 469v54h-284v-54h284z" />
    <glyph glyph-name="eng" unicode="&#x14b;" horiz-adv-x="903" 
d="M591 700h267v-700c0 -226 -96 -321 -351 -321v239c58 0 84 24 84 82h-48l-215 357h-16v-357h-267v700h324l206 -347h16v347z" />
    <glyph glyph-name="tbar" unicode="&#x167;" horiz-adv-x="789" 
d="M759 462h-231v-112h136v-133h-136v-217h-267v217h-136v133h136v112h-231v238h729v-238z" />
    <glyph glyph-name="bullet" unicode="&#x2022;" horiz-adv-x="310" 
d="M155 531c69 0 125 -55 125 -124s-56 -125 -125 -125s-125 56 -125 125s56 124 125 124z" />
    <glyph glyph-name="perthousand" unicode="&#x2030;" horiz-adv-x="1467" 
d="M447 524c0 -113 -84 -195 -208 -195s-209 82 -209 195s85 195 209 195s208 -82 208 -195zM179 524c0 -34 27 -62 60 -62s60 28 60 62s-23 62 -60 62s-60 -28 -60 -62zM771 371c124 0 209 -81 209 -195c0 -113 -85 -195 -209 -195c-123 0 -208 82 -208 195
c0 114 85 195 208 195zM771 114c33 0 60 28 60 62c0 35 -23 62 -60 62s-60 -27 -60 -62c0 -34 27 -62 60 -62zM656 700h153l-457 -700h-153zM1228 371c124 0 209 -81 209 -195c0 -113 -85 -195 -209 -195c-123 0 -208 82 -208 195c0 114 85 195 208 195zM1228 114
c33 0 60 28 60 62c0 35 -23 62 -60 62s-60 -27 -60 -62c0 -34 27 -62 60 -62z" />
    <glyph glyph-name="Aacute" unicode="&#xc1;" horiz-adv-x="864" 
d="M553 0l-26 111h-190l-26 -111h-286l210 700h394l210 -700h-286zM385 320h94l-33 142h-28zM417 958h247l-143 -208h-181z" />
    <glyph glyph-name="Acircumflex" unicode="&#xc2;" horiz-adv-x="864" 
d="M553 0l-26 111h-190l-26 -111h-286l210 700h394l210 -700h-286zM385 320h94l-33 142h-28zM480 750l-41 113h-14l-42 -113h-248l143 208h307l143 -208h-248z" />
    <glyph glyph-name="Agrave" unicode="&#xc0;" horiz-adv-x="864" 
d="M553 0l-26 111h-190l-26 -111h-286l210 700h394l210 -700h-286zM385 320h94l-33 142h-28zM448 958l76 -208h-181l-143 208h248z" />
    <glyph glyph-name="Amacron" unicode="&#x100;" horiz-adv-x="864" 
d="M553 0l-26 111h-190l-26 -111h-286l210 700h394l210 -700h-286zM385 320h94l-33 142h-28zM225 958h415v-208h-415v208z" />
    <glyph glyph-name="AEacute" unicode="&#x1fc;" horiz-adv-x="1120" 
d="M1085 491h-321v-46h293v-190h-293v-45h321v-210h-588v111h-161l-25 -111h-286l210 700h850v-209zM385 321h112v141h-79zM566 958h247l-143 -208h-181z" />
    <glyph glyph-name="Cacute" unicode="&#x106;" horiz-adv-x="827" 
d="M432 233c58 0 84 32 98 70h267c-14 -185 -163 -322 -373 -322c-234 0 -394 155 -394 369s160 369 394 369c210 0 359 -137 373 -322h-267c-14 38 -40 70 -98 70c-67 0 -111 -50 -111 -117s44 -117 111 -117zM389 958h247l-143 -208h-181z" />
    <glyph glyph-name="Ccaron" unicode="&#x10c;" horiz-adv-x="827" 
d="M432 233c58 0 84 32 98 70h267c-14 -185 -163 -322 -373 -322c-234 0 -394 155 -394 369s160 369 394 369c210 0 359 -137 373 -322h-267c-14 38 -40 70 -98 70c-67 0 -111 -50 -111 -117s44 -117 111 -117zM472 958h248l-143 -208h-307l-143 208h248l42 -114h14z" />
    <glyph glyph-name="Ccircumflex" unicode="&#x108;" horiz-adv-x="827" 
d="M432 233c58 0 84 32 98 70h267c-14 -185 -163 -322 -373 -322c-234 0 -394 155 -394 369s160 369 394 369c210 0 359 -137 373 -322h-267c-14 38 -40 70 -98 70c-67 0 -111 -50 -111 -117s44 -117 111 -117zM472 750l-41 113h-14l-42 -113h-248l143 208h307l143 -208
h-248z" />
    <glyph glyph-name="Dcaron" unicode="&#x10e;" horiz-adv-x="821" 
d="M425 700c239 0 366 -134 366 -350s-127 -350 -366 -350h-380v700h380zM388 240c89 0 125 45 125 110s-36 110 -125 110h-76v-220h76zM417 958h248l-143 -208h-307l-143 208h248l42 -114h14z" />
    <glyph glyph-name="Eacute" unicode="&#xc9;" horiz-adv-x="669" 
d="M634 490h-322v-45h293v-190h-293v-45h322v-210h-589v700h589v-210zM325 958h247l-143 -208h-181z" />
    <glyph glyph-name="Ecaron" unicode="&#x11a;" horiz-adv-x="669" 
d="M632 490h-322v-45h293v-190h-293v-45h322v-210h-589v700h589v-210zM386 958h248l-143 -208h-307l-143 208h248l42 -114h14z" />
    <glyph glyph-name="Ecircumflex" unicode="&#xca;" horiz-adv-x="669" 
d="M632 490h-322v-45h293v-190h-293v-45h322v-210h-589v700h589v-210zM386 750l-41 113h-14l-42 -113h-248l143 208h307l143 -208h-248z" />
    <glyph glyph-name="Egrave" unicode="&#xc8;" horiz-adv-x="669" 
d="M634 490h-322v-45h293v-190h-293v-45h322v-210h-589v700h589v-210zM376 958l76 -208h-181l-143 208h248z" />
    <glyph glyph-name="Emacron" unicode="&#x112;" horiz-adv-x="669" 
d="M634 490h-322v-45h293v-190h-293v-45h322v-210h-589v700h589v-210zM132 958h415v-208h-415v208z" />
    <glyph glyph-name="Gcircumflex" unicode="&#x11c;" horiz-adv-x="842" 
d="M443 247v127h354v-374h-171v43c-50 -39 -116 -62 -201 -62c-234 0 -395 155 -395 369s161 369 395 369c210 0 359 -134 372 -302h-267c-13 27 -45 50 -97 50c-67 0 -112 -50 -112 -117s33 -135 112 -137c33 -1 56 9 70 23v11h-60zM472 750l-41 113h-14l-42 -113h-248
l143 208h307l143 -208h-248z" />
    <glyph glyph-name="Gcommaaccent" unicode="&#x122;" horiz-adv-x="842" 
d="M301 -44h248l-143 -208h-181zM443 247v127h354v-374h-171v43c-50 -39 -116 -62 -201 -62c-234 0 -395 155 -395 369s161 369 395 369c210 0 359 -134 372 -302h-267c-13 27 -45 50 -97 50c-67 0 -112 -50 -112 -117s33 -135 112 -137c33 -1 56 9 70 23v11h-60z" />
    <glyph glyph-name="Hcircumflex" unicode="&#x124;" horiz-adv-x="831" 
d="M519 700h267v-700h-267v231h-207v-231h-267v700h267v-231h207v231zM464 750l-41 113h-14l-42 -113h-248l143 208h307l143 -208h-248z" />
    <glyph glyph-name="Iacute" unicode="&#xcd;" horiz-adv-x="357" 
d="M45 700h267v-700h-267v700zM164 958h247l-143 -208h-181z" />
    <glyph glyph-name="Icircumflex" unicode="&#xce;" horiz-adv-x="357" 
d="M45 700h267v-700h-267v700zM227 750l-41 113h-14l-42 -113h-248l143 208h307l143 -208h-248z" />
    <glyph glyph-name="Igrave" unicode="&#xcc;" horiz-adv-x="357" 
d="M45 700h267v-700h-267v700zM195 958l76 -208h-181l-143 208h248z" />
    <glyph glyph-name="Imacron" unicode="&#x12a;" horiz-adv-x="357" 
d="M45 700h267v-700h-267v700zM-29 958h415v-208h-415v208z" />
    <glyph glyph-name="IJ" unicode="&#x132;" horiz-adv-x="1040" 
d="M45 700h267v-700h-267v700zM995 700v-388c0 -227 -82 -331 -322 -331c-220 0 -321 122 -321 323h267c0 -48 19 -74 54 -74c43 0 55 24 55 82v150h-214v238h481z" />
    <glyph glyph-name="Jcircumflex" unicode="&#x134;" horiz-adv-x="718" 
d="M673 700v-388c0 -227 -82 -331 -322 -331c-220 0 -321 122 -321 323h267c0 -48 19 -74 54 -74c43 0 55 24 55 82v150h-214v238h481zM410 750l-41 113h-14l-42 -113h-248l143 208h307l143 -208h-248z" />
    <glyph glyph-name="Kcommaaccent" unicode="&#x136;" horiz-adv-x="799" 
d="M286 -44h248l-143 -208h-181zM488 0l-109 231h-68v-231h-266v700h266v-231h67l91 231h276l-151 -338l180 -362h-286z" />
    <glyph glyph-name="Lacute" unicode="&#x139;" horiz-adv-x="701" 
d="M311 238h360v-238h-626v700h266v-462zM163 958h247l-143 -208h-181z" />
    <glyph glyph-name="Lcaron" unicode="&#x13d;" horiz-adv-x="701" 
d="M311 238h360v-238h-626v700h266v-462zM682 700v-21l-132 -254h-172l76 275h228z" />
    <glyph glyph-name="Lcommaaccent" unicode="&#x13b;" horiz-adv-x="701" 
d="M256 -44h248l-143 -208h-181zM311 238h360v-238h-626v700h266v-462z" />
    <glyph glyph-name="Ldot" unicode="&#x13f;" horiz-adv-x="701" 
d="M311 238h360v-238h-626v700h266v-462zM546 522c69 0 125 -56 125 -125s-56 -125 -125 -125s-125 56 -125 125s56 125 125 125z" />
    <glyph glyph-name="Nacute" unicode="&#x143;" horiz-adv-x="865" 
d="M553 700h267v-700h-334l-167 348h-7v-348h-267v700h343l158 -348h7v348zM398 958h247l-143 -208h-181z" />
    <glyph glyph-name="Ncaron" unicode="&#x147;" horiz-adv-x="865" 
d="M553 700h267v-700h-334l-167 348h-7v-348h-267v700h343l158 -348h7v348zM481 958h248l-143 -208h-307l-143 208h248l42 -114h14z" />
    <glyph glyph-name="Ncommaaccent" unicode="&#x145;" horiz-adv-x="865" 
d="M336 -44h248l-143 -208h-181zM553 700h267v-700h-334l-167 348h-7v-348h-267v700h343l158 -348h7v348z" />
    <glyph glyph-name="Oacute" unicode="&#xd3;" 
d="M424 719c234 0 394 -155 394 -369s-160 -369 -394 -369s-394 155 -394 369s160 369 394 369zM424 232c63 0 115 53 115 118s-45 118 -115 118s-115 -53 -115 -118s52 -118 115 -118zM399 958h247l-143 -208h-181z" />
    <glyph glyph-name="Ocircumflex" unicode="&#xd4;" 
d="M424 719c234 0 394 -155 394 -369s-160 -369 -394 -369s-394 155 -394 369s160 369 394 369zM424 232c63 0 115 53 115 118s-45 118 -115 118s-115 -53 -115 -118s52 -118 115 -118zM472 750l-41 113h-14l-42 -113h-248l143 208h307l143 -208h-248z" />
    <glyph glyph-name="Ograve" unicode="&#xd2;" 
d="M424 719c234 0 394 -155 394 -369s-160 -369 -394 -369s-394 155 -394 369s160 369 394 369zM424 232c63 0 115 53 115 118s-45 118 -115 118s-115 -53 -115 -118s52 -118 115 -118zM430 958l76 -208h-181l-143 208h248z" />
    <glyph glyph-name="Ohungarumlaut" unicode="&#x150;" 
d="M424 719c234 0 394 -155 394 -369s-160 -369 -394 -369s-394 155 -394 369s160 369 394 369zM424 232c63 0 115 53 115 118s-45 118 -115 118s-115 -53 -115 -118s52 -118 115 -118zM264 958h248l-143 -208h-181zM533 958h247l-142 -208h-181z" />
    <glyph glyph-name="Omacron" unicode="&#x14c;" 
d="M424 719c234 0 394 -155 394 -369s-160 -369 -394 -369s-394 155 -394 369s160 369 394 369zM424 232c63 0 115 53 115 118s-45 118 -115 118s-115 -53 -115 -118s52 -118 115 -118zM217 958h415v-208h-415v208z" />
    <glyph glyph-name="Oslashacute" unicode="&#x1fe;" 
d="M729 594c57 -63 89 -147 89 -244c0 -214 -160 -369 -394 -369c-94 0 -175 25 -240 69l-56 -56l-60 61l51 51c-57 64 -89 148 -89 244c0 215 160 369 394 369c94 0 175 -25 240 -68l56 55l60 -60zM309 350c0 -16 4 -31 9 -45l154 154c-14 6 -30 9 -48 9
c-70 0 -115 -53 -115 -118zM424 232c63 0 115 53 115 118c0 16 -3 32 -8 46l-154 -154c14 -6 30 -10 47 -10zM408 958h247l-143 -208h-181z" />
    <glyph glyph-name="Abreve" unicode="&#x102;" horiz-adv-x="864" 
d="M553 0l-26 111h-190l-26 -111h-286l210 700h394l210 -700h-286zM385 320h94l-33 142h-28zM503 964h152c0 -131 -86 -225 -223 -225s-223 94 -223 225h152c0 -41 32 -74 71 -74s71 33 71 74z" />
    <glyph glyph-name="Adieresis" unicode="&#xc4;" horiz-adv-x="864" 
d="M553 0l-26 111h-190l-26 -111h-286l210 700h394l210 -700h-286zM385 320h94l-33 142h-28zM291 989c69 0 125 -56 125 -125s-56 -125 -125 -125s-125 56 -125 125s56 125 125 125zM572 989c69 0 125 -56 125 -125s-56 -125 -125 -125s-125 56 -125 125s56 125 125 125z
" />
    <glyph glyph-name="Aring" unicode="&#xc5;" horiz-adv-x="864" 
d="M553 0l-26 111h-190l-26 -111h-286l210 700h394l210 -700h-286zM385 320h94l-33 142h-28zM432 1027c92 0 154 -61 154 -144c0 -84 -62 -144 -154 -144c-91 0 -154 60 -154 144c0 83 63 144 154 144zM432 841c22 0 41 19 41 42s-16 41 -41 41s-40 -18 -40 -41
s18 -42 40 -42z" />
    <glyph glyph-name="Atilde" unicode="&#xc3;" horiz-adv-x="864" 
d="M553 0l-26 111h-190l-26 -111h-286l210 700h394l210 -700h-286zM385 320h94l-33 142h-28zM533 970h124c0 -124 -4 -231 -128 -231c-92 0 -123 63 -159 63c-21 0 -29 -11 -29 -50h-134c0 151 44 233 150 233c63 0 117 -58 149 -58c20 0 27 11 27 43z" />
    <glyph glyph-name="Cdotaccent" unicode="&#x10a;" horiz-adv-x="827" 
d="M432 233c58 0 84 32 98 70h267c-14 -185 -163 -322 -373 -322c-234 0 -394 155 -394 369s160 369 394 369c210 0 359 -137 373 -322h-267c-14 38 -40 70 -98 70c-67 0 -111 -50 -111 -117s44 -117 111 -117zM423 989c69 0 125 -56 125 -125s-56 -125 -125 -125
s-125 56 -125 125s56 125 125 125z" />
    <glyph glyph-name="Ebreve" unicode="&#x114;" horiz-adv-x="669" 
d="M634 490h-322v-45h293v-190h-293v-45h322v-210h-589v700h589v-210zM410 964h152c0 -131 -86 -225 -223 -225s-223 94 -223 225h152c0 -41 32 -74 71 -74s71 33 71 74z" />
    <glyph glyph-name="Edieresis" unicode="&#xcb;" horiz-adv-x="669" 
d="M634 490h-322v-45h293v-190h-293v-45h322v-210h-589v700h589v-210zM199 989c69 0 125 -56 125 -125s-56 -125 -125 -125s-125 56 -125 125s56 125 125 125zM480 989c69 0 125 -56 125 -125s-56 -125 -125 -125s-125 56 -125 125s56 125 125 125z" />
    <glyph glyph-name="Edotaccent" unicode="&#x116;" horiz-adv-x="669" 
d="M634 490h-322v-45h293v-190h-293v-45h322v-210h-589v700h589v-210zM339 989c69 0 125 -56 125 -125s-56 -125 -125 -125s-125 56 -125 125s56 125 125 125z" />
    <glyph glyph-name="Gbreve" unicode="&#x11e;" horiz-adv-x="842" 
d="M443 247v127h354v-374h-171v43c-50 -39 -116 -62 -201 -62c-234 0 -395 155 -395 369s161 369 395 369c210 0 359 -134 372 -302h-267c-13 27 -45 50 -97 50c-67 0 -112 -50 -112 -117s33 -135 112 -137c33 -1 56 9 70 23v11h-60zM484 964h152c0 -131 -86 -225 -223 -225
s-223 94 -223 225h152c0 -41 32 -74 71 -74s71 33 71 74z" />
    <glyph glyph-name="Gdotaccent" unicode="&#x120;" horiz-adv-x="842" 
d="M443 247v127h354v-374h-171v43c-50 -39 -116 -62 -201 -62c-234 0 -395 155 -395 369s161 369 395 369c210 0 359 -134 372 -302h-267c-13 27 -45 50 -97 50c-67 0 -112 -50 -112 -117s33 -135 112 -137c33 -1 56 9 70 23v11h-60zM423 989c69 0 125 -56 125 -125
s-56 -125 -125 -125s-125 56 -125 125s56 125 125 125z" />
    <glyph glyph-name="Ibreve" unicode="&#x12c;" horiz-adv-x="356" 
d="M44 700h267v-700h-267v700zM249 964h152c0 -131 -86 -225 -223 -225s-223 94 -223 225h152c0 -41 32 -74 71 -74s71 33 71 74z" />
    <glyph glyph-name="Idieresis" unicode="&#xcf;" horiz-adv-x="357" 
d="M45 700h267v-700h-267v700zM38 989c69 0 125 -56 125 -125s-56 -125 -125 -125s-125 56 -125 125s56 125 125 125zM319 989c69 0 125 -56 125 -125s-56 -125 -125 -125s-125 56 -125 125s56 125 125 125z" />
    <glyph glyph-name="Idotaccent" unicode="&#x130;" horiz-adv-x="357" 
d="M45 700h267v-700h-267v700zM178 989c69 0 125 -56 125 -125s-56 -125 -125 -125s-125 56 -125 125s56 125 125 125z" />
    <glyph glyph-name="Itilde" unicode="&#x128;" horiz-adv-x="356" 
d="M44 700h267v-700h-267v700zM279 970h124c0 -124 -4 -231 -128 -231c-92 0 -123 63 -159 63c-21 0 -29 -11 -29 -50h-134c0 151 44 233 150 233c63 0 117 -58 149 -58c20 0 27 11 27 43z" />
    <glyph glyph-name="Ntilde" unicode="&#xd1;" horiz-adv-x="865" 
d="M553 700h267v-700h-334l-167 348h-7v-348h-267v700h343l158 -348h7v348zM533 970h124c0 -124 -4 -231 -128 -231c-92 0 -123 63 -159 63c-21 0 -29 -11 -29 -50h-134c0 151 44 233 150 233c63 0 117 -58 149 -58c20 0 27 11 27 43z" />
    <glyph glyph-name="Obreve" unicode="&#x14e;" 
d="M424 719c234 0 394 -155 394 -369s-160 -369 -394 -369s-394 155 -394 369s160 369 394 369zM424 232c63 0 115 53 115 118s-45 118 -115 118s-115 -53 -115 -118s52 -118 115 -118zM495 964h152c0 -131 -86 -225 -223 -225s-223 94 -223 225h152c0 -41 32 -74 71 -74
s71 33 71 74z" />
    <glyph glyph-name="Odieresis" unicode="&#xd6;" 
d="M424 719c234 0 394 -155 394 -369s-160 -369 -394 -369s-394 155 -394 369s160 369 394 369zM424 232c63 0 115 53 115 118s-45 118 -115 118s-115 -53 -115 -118s52 -118 115 -118zM283 989c69 0 125 -56 125 -125s-56 -125 -125 -125s-125 56 -125 125s56 125 125 125z
M564 989c69 0 125 -56 125 -125s-56 -125 -125 -125s-125 56 -125 125s56 125 125 125z" />
    <glyph glyph-name="Otilde" unicode="&#xd5;" 
d="M424 719c234 0 394 -155 394 -369s-160 -369 -394 -369s-394 155 -394 369s160 369 394 369zM424 232c63 0 115 53 115 118s-45 118 -115 118s-115 -53 -115 -118s52 -118 115 -118zM525 970h124c0 -124 -4 -231 -128 -231c-92 0 -123 63 -159 63c-21 0 -29 -11 -29 -50
h-134c0 151 44 233 150 233c63 0 117 -58 149 -58c20 0 27 11 27 43z" />
    <glyph glyph-name="Racute" unicode="&#x154;" horiz-adv-x="761" 
d="M460 0l-90 187h-58v-187h-267v700h357c203 0 302 -85 302 -257c0 -93 -29 -160 -87 -202l129 -241h-286zM376 500h-64v-113h64c44 0 68 15 68 56c0 42 -24 57 -68 57zM310 958h247l-143 -208h-181z" />
    <glyph glyph-name="Rcaron" unicode="&#x158;" horiz-adv-x="761" 
d="M460 0l-90 187h-58v-187h-267v700h357c203 0 302 -85 302 -257c0 -93 -29 -160 -87 -202l129 -241h-286zM376 500h-64v-113h64c44 0 68 15 68 56c0 42 -24 57 -68 57zM414 958h248l-143 -208h-307l-143 208h248l42 -114h14z" />
    <glyph glyph-name="Rcommaaccent" unicode="&#x156;" horiz-adv-x="761" 
d="M276 -44h248l-143 -208h-181zM460 0l-90 187h-58v-187h-267v700h357c203 0 302 -85 302 -257c0 -93 -29 -160 -87 -202l129 -241h-286zM376 500h-64v-113h64c44 0 68 15 68 56c0 42 -24 57 -68 57z" />
    <glyph glyph-name="Sacute" unicode="&#x15a;" horiz-adv-x="737" 
d="M385 -19c-263 0 -355 142 -355 255h252c0 -47 44 -62 79 -62c37 0 55 12 55 34c0 33 -44 39 -122 61c-165 46 -237 93 -237 208c0 231 209 242 323 242c144 0 306 -56 306 -240h-247c0 36 -27 55 -60 55c-31 0 -51 -11 -51 -38c0 -35 74 -50 141 -66s238 -34 238 -205
c0 -200 -141 -244 -322 -244zM343 958h247l-143 -208h-181z" />
    <glyph glyph-name="Scaron" unicode="&#x160;" horiz-adv-x="737" 
d="M385 -19c-263 0 -355 142 -355 255h252c0 -47 44 -62 79 -62c37 0 55 12 55 34c0 33 -44 39 -122 61c-165 46 -237 93 -237 208c0 231 209 242 323 242c144 0 306 -56 306 -240h-247c0 36 -27 55 -60 55c-31 0 -51 -11 -51 -38c0 -35 74 -50 141 -66s238 -34 238 -205
c0 -200 -141 -244 -322 -244zM427 958h248l-143 -208h-307l-143 208h248l42 -114h14z" />
    <glyph glyph-name="Scircumflex" unicode="&#x15c;" horiz-adv-x="737" 
d="M385 -19c-263 0 -355 142 -355 255h252c0 -47 44 -62 79 -62c37 0 55 12 55 34c0 33 -44 39 -122 61c-165 46 -237 93 -237 208c0 231 209 242 323 242c144 0 306 -56 306 -240h-247c0 36 -27 55 -60 55c-31 0 -51 -11 -51 -38c0 -35 74 -50 141 -66s238 -34 238 -205
c0 -200 -141 -244 -322 -244zM427 750l-41 113h-14l-42 -113h-248l143 208h307l143 -208h-248z" />
    <glyph glyph-name="Scommaaccent" unicode="&#x218;" horiz-adv-x="737" 
d="M271 -44h248l-143 -208h-181zM385 -19c-263 0 -355 142 -355 255h252c0 -47 44 -62 79 -62c37 0 55 12 55 34c0 33 -44 39 -122 61c-165 46 -237 93 -237 208c0 231 209 242 323 242c144 0 306 -56 306 -240h-247c0 36 -27 55 -60 55c-31 0 -51 -11 -51 -38
c0 -35 74 -50 141 -66s238 -34 238 -205c0 -200 -141 -244 -322 -244z" />
    <glyph glyph-name="Tcaron" unicode="&#x164;" horiz-adv-x="760" 
d="M730 700v-238h-217v-462h-266v462h-217v238h700zM428 958h248l-143 -208h-307l-143 208h248l42 -114h14z" />
    <glyph glyph-name="Tcommaaccent" unicode="&#x162;" horiz-adv-x="760" 
d="M251 -44h248l-143 -208h-181zM730 700v-238h-217v-462h-266v462h-217v238h700z" />
    <glyph glyph-name="Uacute" unicode="&#xda;" horiz-adv-x="763" 
d="M452 700h266v-379c0 -226 -96 -340 -336 -340s-337 114 -337 340v379h267v-379c0 -62 25 -91 70 -91s70 29 70 91v379zM376 958h247l-143 -208h-181z" />
    <glyph glyph-name="Ubreve" unicode="&#x16c;" horiz-adv-x="763" 
d="M452 700h266v-379c0 -226 -96 -340 -336 -340s-337 114 -337 340v379h267v-379c0 -62 25 -91 70 -91s70 29 70 91v379zM452 964h152c0 -131 -86 -225 -223 -225s-223 94 -223 225h152c0 -41 32 -74 71 -74s71 33 71 74z" />
    <glyph glyph-name="Ucircumflex" unicode="&#xdb;" horiz-adv-x="763" 
d="M452 700h266v-379c0 -226 -96 -340 -336 -340s-337 114 -337 340v379h267v-379c0 -62 25 -91 70 -91s70 29 70 91v379zM430 750l-41 113h-14l-42 -113h-248l143 208h307l143 -208h-248z" />
    <glyph glyph-name="Udieresis" unicode="&#xdc;" horiz-adv-x="763" 
d="M452 700h266v-379c0 -226 -96 -340 -336 -340s-337 114 -337 340v379h267v-379c0 -62 25 -91 70 -91s70 29 70 91v379zM241 989c69 0 125 -56 125 -125s-56 -125 -125 -125s-125 56 -125 125s56 125 125 125zM522 989c69 0 125 -56 125 -125s-56 -125 -125 -125
s-125 56 -125 125s56 125 125 125z" />
    <glyph glyph-name="Ugrave" unicode="&#xd9;" horiz-adv-x="763" 
d="M452 700h266v-379c0 -226 -96 -340 -336 -340s-337 114 -337 340v379h267v-379c0 -62 25 -91 70 -91s70 29 70 91v379zM397 958l76 -208h-181l-143 208h248z" />
    <glyph glyph-name="Uhungarumlaut" unicode="&#x170;" horiz-adv-x="763" 
d="M452 700h266v-379c0 -226 -96 -340 -336 -340s-337 114 -337 340v379h267v-379c0 -62 25 -91 70 -91s70 29 70 91v379zM241 958h248l-143 -208h-181zM510 958h247l-142 -208h-181z" />
    <glyph glyph-name="Umacron" unicode="&#x16a;" horiz-adv-x="763" 
d="M452 700h266v-379c0 -226 -96 -340 -336 -340s-337 114 -337 340v379h267v-379c0 -62 25 -91 70 -91s70 29 70 91v379zM174 958h415v-208h-415v208z" />
    <glyph glyph-name="Uring" unicode="&#x16e;" horiz-adv-x="763" 
d="M452 700h266v-379c0 -226 -96 -340 -336 -340s-337 114 -337 340v379h267v-379c0 -62 25 -91 70 -91s70 29 70 91v379zM381 1027c92 0 154 -61 154 -144c0 -84 -62 -144 -154 -144c-91 0 -154 60 -154 144c0 83 63 144 154 144zM381 841c22 0 41 19 41 42s-16 41 -41 41
s-40 -18 -40 -41s18 -42 40 -42z" />
    <glyph glyph-name="Utilde" unicode="&#x168;" horiz-adv-x="763" 
d="M452 700h266v-379c0 -226 -96 -340 -336 -340s-337 114 -337 340v379h267v-379c0 -62 25 -91 70 -91s70 29 70 91v379zM482 970h124c0 -124 -4 -231 -128 -231c-92 0 -123 63 -159 63c-21 0 -29 -11 -29 -50h-134c0 151 44 233 150 233c63 0 117 -58 149 -58
c20 0 27 11 27 43z" />
    <glyph glyph-name="Wacute" unicode="&#x1e82;" horiz-adv-x="1250" 
d="M929 700h296l-191 -700h-325l-81 348h-7l-81 -348h-324l-191 700h295l69 -405h9l95 405h264l94 -405h10zM620 958h247l-143 -208h-181z" />
    <glyph glyph-name="Wcircumflex" unicode="&#x174;" horiz-adv-x="1250" 
d="M929 700h296l-191 -700h-325l-81 348h-7l-81 -348h-324l-191 700h295l69 -405h9l95 405h264l94 -405h10zM673 750l-41 113h-14l-42 -113h-248l143 208h307l143 -208h-248z" />
    <glyph glyph-name="Wdieresis" unicode="&#x1e84;" horiz-adv-x="1250" 
d="M929 700h296l-191 -700h-325l-81 348h-7l-81 -348h-324l-191 700h295l69 -405h9l95 405h264l94 -405h10zM484 989c69 0 125 -56 125 -125s-56 -125 -125 -125s-125 56 -125 125s56 125 125 125zM765 989c69 0 125 -56 125 -125s-56 -125 -125 -125s-125 56 -125 125
s56 125 125 125z" />
    <glyph glyph-name="Wgrave" unicode="&#x1e80;" horiz-adv-x="1250" 
d="M929 700h296l-191 -700h-325l-81 348h-7l-81 -348h-324l-191 700h295l69 -405h9l95 405h264l94 -405h10zM641 958l76 -208h-181l-143 208h248z" />
    <glyph glyph-name="Yacute" unicode="&#xdd;" horiz-adv-x="787" 
d="M762 700l-235 -504v-196h-267v196l-235 504h276l88 -262h9l88 262h276zM378 958h247l-143 -208h-181z" />
    <glyph glyph-name="Ycircumflex" unicode="&#x176;" horiz-adv-x="787" 
d="M762 700l-235 -504v-196h-267v196l-235 504h276l88 -262h9l88 262h276zM442 750l-41 113h-14l-42 -113h-248l143 208h307l143 -208h-248z" />
    <glyph glyph-name="Ydieresis" unicode="&#x178;" horiz-adv-x="787" 
d="M762 700l-235 -504v-196h-267v196l-235 504h276l88 -262h9l88 262h276zM253 989c69 0 125 -56 125 -125s-56 -125 -125 -125s-125 56 -125 125s56 125 125 125zM534 989c69 0 125 -56 125 -125s-56 -125 -125 -125s-125 56 -125 125s56 125 125 125z" />
    <glyph glyph-name="Ygrave" unicode="&#x1ef2;" horiz-adv-x="787" 
d="M762 700l-235 -504v-196h-267v196l-235 504h276l88 -262h9l88 262h276zM409 958l76 -208h-181l-143 208h248z" />
    <glyph glyph-name="Zacute" unicode="&#x179;" horiz-adv-x="723" 
d="M683 238v-238h-643v267l271 187v6h-252v240h595v-278l-281 -177v-7h310zM336 958h247l-143 -208h-181z" />
    <glyph glyph-name="Zcaron" unicode="&#x17d;" horiz-adv-x="723" 
d="M683 238v-238h-643v267l271 187v6h-252v240h595v-278l-281 -177v-7h310zM410 958h248l-143 -208h-307l-143 208h248l42 -114h14z" />
    <glyph glyph-name="Zdotaccent" unicode="&#x17b;" horiz-adv-x="723" 
d="M683 238v-238h-643v267l271 187v6h-252v240h595v-278l-281 -177v-7h310zM371 989c69 0 125 -56 125 -125s-56 -125 -125 -125s-125 56 -125 125s56 125 125 125z" />
    <glyph glyph-name="aacute" unicode="&#xe1;" horiz-adv-x="921" 
d="M600 0l-30 111h-219l-31 -111h-295l238 700h394l239 -700h-296zM408 320h105l-39 142h-28zM417 958h247l-143 -208h-181z" />
    <glyph glyph-name="abreve" unicode="&#x103;" horiz-adv-x="921" 
d="M600 0l-30 111h-219l-31 -111h-295l238 700h394l239 -700h-296zM408 320h105l-39 142h-28zM531 964h152c0 -131 -86 -225 -223 -225s-223 94 -223 225h152c0 -41 32 -74 71 -74s71 33 71 74z" />
    <glyph glyph-name="acircumflex" unicode="&#xe2;" horiz-adv-x="921" 
d="M600 0l-30 111h-219l-31 -111h-295l238 700h394l239 -700h-296zM408 320h105l-39 142h-28zM509 750l-41 113h-14l-42 -113h-248l143 208h307l143 -208h-248z" />
    <glyph glyph-name="adieresis" unicode="&#xe4;" horiz-adv-x="921" 
d="M600 0l-30 111h-219l-31 -111h-295l238 700h394l239 -700h-296zM408 320h105l-39 142h-28zM320 989c69 0 125 -56 125 -125s-56 -125 -125 -125s-125 56 -125 125s56 125 125 125zM601 989c69 0 125 -56 125 -125s-56 -125 -125 -125s-125 56 -125 125s56 125 125 125z
" />
    <glyph glyph-name="agrave" unicode="&#xe0;" horiz-adv-x="921" 
d="M600 0l-30 111h-219l-31 -111h-295l238 700h394l239 -700h-296zM408 320h105l-39 142h-28zM477 958l76 -208h-181l-143 208h248z" />
    <glyph glyph-name="amacron" unicode="&#x101;" horiz-adv-x="921" 
d="M600 0l-30 111h-219l-31 -111h-295l238 700h394l239 -700h-296zM408 320h105l-39 142h-28zM253 958h415v-208h-415v208z" />
    <glyph glyph-name="aring" unicode="&#xe5;" horiz-adv-x="921" 
d="M600 0l-30 111h-219l-31 -111h-295l238 700h394l239 -700h-296zM408 320h105l-39 142h-28zM460 1027c92 0 154 -61 154 -144c0 -84 -62 -144 -154 -144c-91 0 -154 60 -154 144c0 83 63 144 154 144zM460 841c22 0 41 19 41 42s-16 41 -41 41s-40 -18 -40 -41
s18 -42 40 -42z" />
    <glyph glyph-name="atilde" unicode="&#xe3;" horiz-adv-x="921" 
d="M600 0l-30 111h-219l-31 -111h-295l238 700h394l239 -700h-296zM408 320h105l-39 142h-28zM561 970h124c0 -124 -4 -231 -128 -231c-92 0 -123 63 -159 63c-21 0 -29 -11 -29 -50h-134c0 151 44 233 150 233c63 0 117 -58 149 -58c20 0 27 11 27 43z" />
    <glyph glyph-name="aeacute" unicode="&#x1fd;" horiz-adv-x="1235" 
d="M1200 491h-369v-46h341v-190h-341v-45h369v-210h-636v111h-224l-29 -111h-286l229 700h946v-209zM394 320h170v142h-133zM636 958h247l-143 -208h-181z" />
    <glyph glyph-name="cacute" unicode="&#x107;" horiz-adv-x="875" 
d="M451 233c58 0 104 32 117 70h277c-13 -185 -192 -322 -402 -322c-266 0 -413 155 -413 369c0 215 147 369 413 369c210 0 389 -136 402 -321h-277c-13 38 -59 70 -117 70c-78 0 -131 -51 -131 -118c0 -66 53 -117 131 -117zM419 958h247l-143 -208h-181z" />
    <glyph glyph-name="ccaron" unicode="&#x10d;" horiz-adv-x="875" 
d="M451 233c58 0 104 32 117 70h277c-13 -185 -192 -322 -402 -322c-266 0 -413 155 -413 369c0 215 147 369 413 369c210 0 389 -136 402 -321h-277c-13 38 -59 70 -117 70c-78 0 -131 -51 -131 -118c0 -66 53 -117 131 -117zM502 958h248l-143 -208h-307l-143 208h248
l42 -114h14z" />
    <glyph glyph-name="ccircumflex" unicode="&#x109;" horiz-adv-x="875" 
d="M451 233c58 0 104 32 117 70h277c-13 -185 -192 -322 -402 -322c-266 0 -413 155 -413 369c0 215 147 369 413 369c210 0 389 -136 402 -321h-277c-13 38 -59 70 -117 70c-78 0 -131 -51 -131 -118c0 -66 53 -117 131 -117zM502 750l-41 113h-14l-42 -113h-248l143 208
h307l143 -208h-248z" />
    <glyph glyph-name="cdotaccent" unicode="&#x10b;" horiz-adv-x="875" 
d="M451 233c58 0 104 32 117 70h277c-13 -185 -192 -322 -402 -322c-266 0 -413 155 -413 369c0 215 147 369 413 369c210 0 389 -136 402 -321h-277c-13 38 -59 70 -117 70c-78 0 -131 -51 -131 -118c0 -66 53 -117 131 -117zM453 989c69 0 125 -56 125 -125
s-56 -125 -125 -125s-125 56 -125 125s56 125 125 125z" />
    <glyph glyph-name="dcaron" unicode="&#x10f;" horiz-adv-x="1203" 
d="M463 700c240 0 366 -134 366 -350s-126 -350 -366 -350h-418v700h418zM426 239c89 0 126 46 126 111s-37 110 -126 110h-114v-221h114zM1183 700v-21l-132 -254h-172l76 275h228z" />
    <glyph glyph-name="eacute" unicode="&#xe9;" horiz-adv-x="716" 
d="M681 490h-370v-45h341v-190h-341v-46h370v-209h-636v700h636v-210zM355 958h247l-143 -208h-181z" />
    <glyph glyph-name="ebreve" unicode="&#x115;" horiz-adv-x="716" 
d="M681 490h-370v-45h341v-190h-341v-46h370v-209h-636v700h636v-210zM440 964h152c0 -131 -86 -225 -223 -225s-223 94 -223 225h152c0 -41 32 -74 71 -74s71 33 71 74z" />
    <glyph glyph-name="ecaron" unicode="&#x11b;" horiz-adv-x="716" 
d="M681 490h-370v-45h341v-190h-341v-46h370v-209h-636v700h636v-210zM411 958h248l-143 -208h-307l-143 208h248l42 -114h14z" />
    <glyph glyph-name="ecircumflex" unicode="&#xea;" horiz-adv-x="716" 
d="M681 490h-370v-45h341v-190h-341v-46h370v-209h-636v700h636v-210zM411 750l-41 113h-14l-42 -113h-248l143 208h307l143 -208h-248z" />
    <glyph glyph-name="edieresis" unicode="&#xeb;" horiz-adv-x="716" 
d="M681 490h-370v-45h341v-190h-341v-46h370v-209h-636v700h636v-210zM220 989c69 0 125 -56 125 -125s-56 -125 -125 -125s-125 56 -125 125s56 125 125 125zM501 989c69 0 125 -56 125 -125s-56 -125 -125 -125s-125 56 -125 125s56 125 125 125z" />
    <glyph glyph-name="edotaccent" unicode="&#x117;" horiz-adv-x="716" 
d="M681 490h-370v-45h341v-190h-341v-46h370v-209h-636v700h636v-210zM360 989c69 0 125 -56 125 -125s-56 -125 -125 -125s-125 56 -125 125s56 125 125 125z" />
    <glyph glyph-name="egrave" unicode="&#xe8;" horiz-adv-x="716" 
d="M681 490h-370v-45h341v-190h-341v-46h370v-209h-636v700h636v-210zM406 958l76 -208h-181l-143 208h248z" />
    <glyph glyph-name="emacron" unicode="&#x113;" horiz-adv-x="716" 
d="M681 490h-370v-45h341v-190h-341v-46h370v-209h-636v700h636v-210zM155 958h415v-208h-415v208z" />
    <glyph glyph-name="gbreve" unicode="&#x11f;" horiz-adv-x="891" 
d="M492 247v127h354v-374h-172v43c-65 -39 -145 -62 -230 -62c-266 0 -414 155 -414 369c0 215 148 369 414 369c210 0 389 -136 402 -321h-277c-13 38 -59 70 -117 70c-78 0 -131 -51 -131 -118c0 -79 53 -136 131 -136c43 0 72 11 93 27v6h-53zM514 964h152
c0 -131 -86 -225 -223 -225s-223 94 -223 225h152c0 -41 32 -74 71 -74s71 33 71 74z" />
    <glyph glyph-name="gcircumflex" unicode="&#x11d;" horiz-adv-x="891" 
d="M492 247v127h354v-374h-172v43c-65 -39 -145 -62 -230 -62c-266 0 -414 155 -414 369c0 215 148 369 414 369c210 0 389 -136 402 -321h-277c-13 38 -59 70 -117 70c-78 0 -131 -51 -131 -118c0 -79 53 -136 131 -136c43 0 72 11 93 27v6h-53zM502 750l-41 113h-14
l-42 -113h-248l143 208h307l143 -208h-248z" />
    <glyph glyph-name="gcommaaccent" unicode="&#x123;" horiz-adv-x="891" 
d="M492 247v127h354v-374h-172v43c-65 -39 -145 -62 -230 -62c-266 0 -414 155 -414 369c0 215 148 369 414 369c210 0 389 -136 402 -321h-277c-13 38 -59 70 -117 70c-78 0 -131 -51 -131 -118c0 -79 53 -136 131 -136c43 0 72 11 93 27v6h-53zM448 1025h171l-76 -275
h-227v21z" />
    <glyph glyph-name="gdotaccent" unicode="&#x121;" horiz-adv-x="891" 
d="M492 247v127h354v-374h-172v43c-65 -39 -145 -62 -230 -62c-266 0 -414 155 -414 369c0 215 148 369 414 369c210 0 389 -136 402 -321h-277c-13 38 -59 70 -117 70c-78 0 -131 -51 -131 -118c0 -79 53 -136 131 -136c43 0 72 11 93 27v6h-53zM443 989
c69 0 125 -56 125 -125s-56 -125 -125 -125s-125 56 -125 125s56 125 125 125z" />
    <glyph glyph-name="hcircumflex" unicode="&#x125;" horiz-adv-x="908" 
d="M596 700h267v-700h-267v231h-284v-231h-267v700h267v-231h284v231zM502 750l-41 113h-14l-42 -113h-248l143 208h307l143 -208h-248z" />
    <glyph glyph-name="iacute" unicode="&#xed;" horiz-adv-x="578" 
d="M533 462h-111v-224h111v-238h-488v238h111v224h-111v238h488v-238zM284 958h247l-143 -208h-181z" />
    <glyph glyph-name="ibreve" unicode="&#x12d;" horiz-adv-x="578" 
d="M533 462h-111v-224h111v-238h-488v238h111v224h-111v238h488v-238zM360 964h152c0 -131 -86 -225 -223 -225s-223 94 -223 225h152c0 -41 32 -74 71 -74s71 33 71 74z" />
    <glyph glyph-name="icircumflex" unicode="&#xee;" horiz-adv-x="577" 
d="M532 462h-111v-224h111v-238h-488v238h111v224h-111v238h488v-238zM337 750l-41 113h-14l-42 -113h-248l143 208h307l143 -208h-248z" />
    <glyph glyph-name="idieresis" unicode="&#xef;" horiz-adv-x="577" 
d="M532 462h-111v-224h111v-238h-488v238h111v224h-111v238h488v-238zM148 989c69 0 125 -56 125 -125s-56 -125 -125 -125s-125 56 -125 125s56 125 125 125zM429 989c69 0 125 -56 125 -125s-56 -125 -125 -125s-125 56 -125 125s56 125 125 125z" />
    <glyph glyph-name="igrave" unicode="&#xec;" horiz-adv-x="578" 
d="M533 462h-111v-224h111v-238h-488v238h111v224h-111v238h488v-238zM303 958l76 -208h-181l-143 208h248z" />
    <glyph glyph-name="imacron" unicode="&#x12b;" horiz-adv-x="578" 
d="M533 462h-111v-224h111v-238h-488v238h111v224h-111v238h488v-238zM81 958h415v-208h-415v208z" />
    <glyph glyph-name="itilde" unicode="&#x129;" horiz-adv-x="578" 
d="M533 462h-111v-224h111v-238h-488v238h111v224h-111v238h488v-238zM390 970h124c0 -124 -4 -231 -128 -231c-92 0 -123 63 -159 63c-21 0 -29 -11 -29 -50h-134c0 151 44 233 150 233c63 0 117 -58 149 -58c20 0 27 11 27 43z" />
    <glyph glyph-name="ij" unicode="&#x133;" horiz-adv-x="1261" 
d="M533 462h-111v-224h111v-238h-488v238h111v224h-111v238h488v-238zM706 700h510v-388c0 -227 -82 -331 -322 -331c-215 0 -321 120 -321 299v97h267v-84c0 -41 24 -63 54 -63c34 0 55 20 55 63v169h-243v238z" />
    <glyph glyph-name="dotlessi" unicode="&#x131;" horiz-adv-x="578" 
d="M533 462h-111v-224h111v-238h-488v238h111v224h-111v238h488v-238z" />
    <glyph glyph-name="jcircumflex" unicode="&#x135;" horiz-adv-x="718" 
d="M163 700h510v-388c0 -227 -82 -331 -322 -331c-215 0 -321 120 -321 299v97h267v-84c0 -41 24 -63 54 -63c34 0 55 20 55 63v169h-243v238zM410 750l-41 113h-14l-42 -113h-248l143 208h307l143 -208h-248z" />
    <glyph glyph-name="kcommaaccent" unicode="&#x137;" horiz-adv-x="856" 
d="M306 -44h248l-143 -208h-181zM536 0l-120 231h-104v-231h-267v700h267v-231h102l103 231h286l-169 -340l197 -360h-295z" />
    <glyph glyph-name="kgreenlandic" unicode="&#x138;" horiz-adv-x="856" 
d="M536 0l-120 231h-104v-231h-267v700h267v-231h102l103 231h286l-169 -340l197 -360h-295z" />
    <glyph glyph-name="lacute" unicode="&#x13a;" horiz-adv-x="740" 
d="M312 238h398v-238h-665v700h267v-462zM163 958h247l-143 -208h-181z" />
    <glyph glyph-name="lcaron" unicode="&#x13e;" horiz-adv-x="740" 
d="M312 238h398v-238h-665v700h267v-462zM682 700v-21l-132 -254h-172l76 275h228z" />
    <glyph glyph-name="lcommaaccent" unicode="&#x13c;" horiz-adv-x="740" 
d="M296 -44h248l-143 -208h-181zM312 238h398v-238h-665v700h267v-462z" />
    <glyph glyph-name="ldot" unicode="&#x140;" horiz-adv-x="740" 
d="M312 238h398v-238h-665v700h267v-462zM546 522c69 0 125 -56 125 -125s-56 -125 -125 -125s-125 56 -125 125s56 125 125 125z" />
    <glyph glyph-name="nacute" unicode="&#x144;" horiz-adv-x="903" 
d="M591 700h267v-700h-314l-216 357h-16v-357h-267v700h324l206 -348h16v348zM448 958h247l-143 -208h-181z" />
    <glyph glyph-name="napostrophe" unicode="&#x149;" horiz-adv-x="1222" 
d="M910 700h267v-700h-314l-216 357h-16v-357h-267v700h324l206 -348h16v348zM324 700v-21l-132 -254h-172l76 275h228z" />
    <glyph glyph-name="ncaron" unicode="&#x148;" horiz-adv-x="903" 
d="M591 700h267v-700h-314l-216 357h-16v-357h-267v700h324l206 -348h16v348zM501 958h248l-143 -208h-307l-143 208h248l42 -114h14z" />
    <glyph glyph-name="ncommaaccent" unicode="&#x146;" horiz-adv-x="903" 
d="M316 -44h248l-143 -208h-181zM591 700h267v-700h-314l-216 357h-16v-357h-267v700h324l206 -348h16v348z" />
    <glyph glyph-name="ntilde" unicode="&#xf1;" horiz-adv-x="903" 
d="M591 700h267v-700h-314l-216 357h-16v-357h-267v700h324l206 -348h16v348zM552 970h124c0 -124 -4 -231 -128 -231c-92 0 -123 63 -159 63c-21 0 -29 -11 -29 -50h-134c0 151 44 233 150 233c63 0 117 -58 149 -58c20 0 27 11 27 43z" />
    <glyph glyph-name="oacute" unicode="&#xf3;" horiz-adv-x="908" 
d="M454 719c253 0 424 -119 424 -369c0 -249 -171 -369 -424 -369s-424 120 -424 369c0 250 171 369 424 369zM454 232c84 0 134 46 134 118s-50 119 -134 119s-134 -47 -134 -119s50 -118 134 -118zM449 958h247l-143 -208h-181z" />
    <glyph glyph-name="obreve" unicode="&#x14f;" horiz-adv-x="908" 
d="M454 719c253 0 424 -119 424 -369c0 -249 -171 -369 -424 -369s-424 120 -424 369c0 250 171 369 424 369zM454 232c84 0 134 46 134 118s-50 119 -134 119s-134 -47 -134 -119s50 -118 134 -118zM525 964h152c0 -131 -86 -225 -223 -225s-223 94 -223 225h152
c0 -41 32 -74 71 -74s71 33 71 74z" />
    <glyph glyph-name="ocircumflex" unicode="&#xf4;" horiz-adv-x="908" 
d="M454 719c253 0 424 -119 424 -369c0 -249 -171 -369 -424 -369s-424 120 -424 369c0 250 171 369 424 369zM454 232c84 0 134 46 134 118s-50 119 -134 119s-134 -47 -134 -119s50 -118 134 -118zM502 750l-41 113h-14l-42 -113h-248l143 208h307l143 -208h-248z" />
    <glyph glyph-name="odieresis" unicode="&#xf6;" horiz-adv-x="908" 
d="M454 719c253 0 424 -119 424 -369c0 -249 -171 -369 -424 -369s-424 120 -424 369c0 250 171 369 424 369zM454 232c84 0 134 46 134 118s-50 119 -134 119s-134 -47 -134 -119s50 -118 134 -118zM313 989c69 0 125 -56 125 -125s-56 -125 -125 -125s-125 56 -125 125
s56 125 125 125zM594 989c69 0 125 -56 125 -125s-56 -125 -125 -125s-125 56 -125 125s56 125 125 125z" />
    <glyph glyph-name="ograve" unicode="&#xf2;" horiz-adv-x="908" 
d="M454 719c253 0 424 -119 424 -369c0 -249 -171 -369 -424 -369s-424 120 -424 369c0 250 171 369 424 369zM454 232c84 0 134 46 134 118s-50 119 -134 119s-134 -47 -134 -119s50 -118 134 -118zM450 958l76 -208h-181l-143 208h248z" />
    <glyph glyph-name="ohungarumlaut" unicode="&#x151;" horiz-adv-x="908" 
d="M454 719c253 0 424 -119 424 -369c0 -249 -171 -369 -424 -369s-424 120 -424 369c0 250 171 369 424 369zM454 232c84 0 134 46 134 118s-50 119 -134 119s-134 -47 -134 -119s50 -118 134 -118zM334 958h248l-143 -208h-181zM603 958h247l-142 -208h-181z" />
    <glyph glyph-name="omacron" unicode="&#x14d;" horiz-adv-x="908" 
d="M454 719c253 0 424 -119 424 -369c0 -249 -171 -369 -424 -369s-424 120 -424 369c0 250 171 369 424 369zM454 232c84 0 134 46 134 118s-50 119 -134 119s-134 -47 -134 -119s50 -118 134 -118zM246 958h415v-208h-415v208z" />
    <glyph glyph-name="oslashacute" unicode="&#x1ff;" horiz-adv-x="907" 
d="M777 614c64 -61 100 -148 100 -263c0 -250 -170 -370 -423 -370c-99 0 -185 19 -253 56l-43 -43l-61 61l33 33c-64 60 -100 148 -100 263c0 249 170 368 424 368c98 0 184 -18 253 -55l42 43l61 -61zM319 351c0 -23 5 -43 15 -60l170 171c-15 4 -32 7 -50 7
c-84 0 -135 -46 -135 -118zM454 232c83 0 134 47 134 119c0 22 -5 42 -14 59l-171 -171c15 -4 32 -7 51 -7zM448 958h247l-143 -208h-181z" />
    <glyph glyph-name="otilde" unicode="&#xf5;" horiz-adv-x="908" 
d="M454 719c253 0 424 -119 424 -369c0 -249 -171 -369 -424 -369s-424 120 -424 369c0 250 171 369 424 369zM454 232c84 0 134 46 134 118s-50 119 -134 119s-134 -47 -134 -119s50 -118 134 -118zM555 970h124c0 -124 -4 -231 -128 -231c-92 0 -123 63 -159 63
c-21 0 -29 -11 -29 -50h-134c0 151 44 233 150 233c63 0 117 -58 149 -58c20 0 27 11 27 43z" />
    <glyph glyph-name="racute" unicode="&#x155;" horiz-adv-x="818" 
d="M517 0l-90 187h-115v-187h-267v700h413c204 0 303 -85 303 -257c0 -93 -29 -160 -88 -202l130 -241h-286zM312 500v-113h121c44 0 67 10 67 56c0 47 -23 57 -67 57h-121zM382 958h247l-143 -208h-181z" />
    <glyph glyph-name="rcaron" unicode="&#x159;" horiz-adv-x="818" 
d="M517 0l-90 187h-115v-187h-267v700h413c204 0 303 -85 303 -257c0 -93 -29 -160 -88 -202l130 -241h-286zM312 500v-113h121c44 0 67 10 67 56c0 47 -23 57 -67 57h-121zM464 958h248l-143 -208h-307l-143 208h248l42 -114h14z" />
    <glyph glyph-name="rcommaaccent" unicode="&#x157;" horiz-adv-x="818" 
d="M296 -44h248l-143 -208h-181zM517 0l-90 187h-115v-187h-267v700h413c204 0 303 -85 303 -257c0 -93 -29 -160 -88 -202l130 -241h-286zM312 500v-113h121c44 0 67 10 67 56c0 47 -23 57 -67 57h-121z" />
    <glyph glyph-name="sacute" unicode="&#x15b;" horiz-adv-x="776" 
d="M405 -18c-264 0 -375 141 -375 255h252c0 -48 54 -63 99 -63c51 0 74 12 74 35c0 32 -83 39 -161 60c-165 46 -237 93 -237 209c0 230 229 241 343 241c144 0 325 -56 325 -240h-247c0 36 -37 56 -79 56c-43 0 -71 -11 -71 -38c0 -40 113 -51 180 -67
c67 -15 238 -34 238 -205c0 -200 -161 -243 -341 -243zM373 958h247l-143 -208h-181z" />
    <glyph glyph-name="scaron" unicode="&#x161;" horiz-adv-x="776" 
d="M405 -18c-264 0 -375 141 -375 255h252c0 -48 54 -63 99 -63c51 0 74 12 74 35c0 32 -83 39 -161 60c-165 46 -237 93 -237 209c0 230 229 241 343 241c144 0 325 -56 325 -240h-247c0 36 -37 56 -79 56c-43 0 -71 -11 -71 -38c0 -40 113 -51 180 -67
c67 -15 238 -34 238 -205c0 -200 -161 -243 -341 -243zM440 958h248l-143 -208h-307l-143 208h248l42 -114h14z" />
    <glyph glyph-name="scircumflex" unicode="&#x15d;" horiz-adv-x="776" 
d="M405 -18c-264 0 -375 141 -375 255h252c0 -48 54 -63 99 -63c51 0 74 12 74 35c0 32 -83 39 -161 60c-165 46 -237 93 -237 209c0 230 229 241 343 241c144 0 325 -56 325 -240h-247c0 36 -37 56 -79 56c-43 0 -71 -11 -71 -38c0 -40 113 -51 180 -67
c67 -15 238 -34 238 -205c0 -200 -161 -243 -341 -243zM438 750l-41 113h-14l-42 -113h-248l143 208h307l143 -208h-248z" />
    <glyph glyph-name="scommaaccent" unicode="&#x219;" horiz-adv-x="776" 
d="M281 -44h248l-143 -208h-181zM405 -18c-264 0 -375 141 -375 255h252c0 -48 54 -63 99 -63c51 0 74 12 74 35c0 32 -83 39 -161 60c-165 46 -237 93 -237 209c0 230 229 241 343 241c144 0 325 -56 325 -240h-247c0 36 -37 56 -79 56c-43 0 -71 -11 -71 -38
c0 -40 113 -51 180 -67c67 -15 238 -34 238 -205c0 -200 -161 -243 -341 -243z" />
    <glyph glyph-name="tcaron" unicode="&#x165;" horiz-adv-x="1123" 
d="M759 700v-238h-231v-462h-267v462h-231v238h729zM1103 700v-21l-132 -254h-172l76 275h228z" />
    <glyph glyph-name="tcommaaccent" unicode="&#x163;" horiz-adv-x="789" 
d="M269 -44h248l-143 -208h-181zM759 700v-238h-231v-462h-267v462h-231v238h729z" />
    <glyph glyph-name="uacute" unicode="&#xfa;" horiz-adv-x="839" 
d="M528 700h266v-360c0 -237 -127 -359 -374 -359c-248 0 -375 122 -375 359v360h267v-360c0 -79 45 -110 108 -110s108 31 108 110v360zM410 958h247l-143 -208h-181z" />
    <glyph glyph-name="ubreve" unicode="&#x16d;" horiz-adv-x="839" 
d="M528 700h266v-360c0 -237 -127 -359 -374 -359c-248 0 -375 122 -375 359v360h267v-360c0 -79 45 -110 108 -110s108 31 108 110v360zM490 964h152c0 -131 -86 -225 -223 -225s-223 94 -223 225h152c0 -41 32 -74 71 -74s71 33 71 74z" />
    <glyph glyph-name="ucircumflex" unicode="&#xfb;" horiz-adv-x="839" 
d="M528 700h266v-360c0 -237 -127 -359 -374 -359c-248 0 -375 122 -375 359v360h267v-360c0 -79 45 -110 108 -110s108 31 108 110v360zM468 750l-41 113h-14l-42 -113h-248l143 208h307l143 -208h-248z" />
    <glyph glyph-name="udieresis" unicode="&#xfc;" horiz-adv-x="839" 
d="M528 700h266v-360c0 -237 -127 -359 -374 -359c-248 0 -375 122 -375 359v360h267v-360c0 -79 45 -110 108 -110s108 31 108 110v360zM279 989c69 0 125 -56 125 -125s-56 -125 -125 -125s-125 56 -125 125s56 125 125 125zM560 989c69 0 125 -56 125 -125
s-56 -125 -125 -125s-125 56 -125 125s56 125 125 125z" />
    <glyph glyph-name="uhungarumlaut" unicode="&#x171;" horiz-adv-x="839" 
d="M528 700h266v-360c0 -237 -127 -359 -374 -359c-248 0 -375 122 -375 359v360h267v-360c0 -79 45 -110 108 -110s108 31 108 110v360zM281 958h248l-143 -208h-181zM550 958h247l-142 -208h-181z" />
    <glyph glyph-name="ugrave" unicode="&#xf9;" horiz-adv-x="839" 
d="M528 700h266v-360c0 -237 -127 -359 -374 -359c-248 0 -375 122 -375 359v360h267v-360c0 -79 45 -110 108 -110s108 31 108 110v360zM427 958l76 -208h-181l-143 208h248z" />
    <glyph glyph-name="umacron" unicode="&#x16b;" horiz-adv-x="839" 
d="M528 700h266v-360c0 -237 -127 -359 -374 -359c-248 0 -375 122 -375 359v360h267v-360c0 -79 45 -110 108 -110s108 31 108 110v360zM212 958h415v-208h-415v208z" />
    <glyph glyph-name="uring" unicode="&#x16f;" horiz-adv-x="839" 
d="M528 700h266v-360c0 -237 -127 -359 -374 -359c-248 0 -375 122 -375 359v360h267v-360c0 -79 45 -110 108 -110s108 31 108 110v360zM419 1027c92 0 154 -61 154 -144c0 -84 -62 -144 -154 -144c-91 0 -154 60 -154 144c0 83 63 144 154 144zM419 841c22 0 41 19 41 42
s-16 41 -41 41s-40 -18 -40 -41s18 -42 40 -42z" />
    <glyph glyph-name="utilde" unicode="&#x169;" horiz-adv-x="839" 
d="M528 700h266v-360c0 -237 -127 -359 -374 -359c-248 0 -375 122 -375 359v360h267v-360c0 -79 45 -110 108 -110s108 31 108 110v360zM520 970h124c0 -124 -4 -231 -128 -231c-92 0 -123 63 -159 63c-21 0 -29 -11 -29 -50h-134c0 151 44 233 150 233
c63 0 117 -58 149 -58c20 0 27 11 27 43z" />
    <glyph glyph-name="wacute" unicode="&#x1e83;" horiz-adv-x="1288" 
d="M968 700h295l-191 -700h-334l-81 348h-26l-81 -348h-334l-191 700h295l69 -405h19l94 405h284l94 -405h19zM630 958h247l-143 -208h-181z" />
    <glyph glyph-name="wcircumflex" unicode="&#x175;" horiz-adv-x="1288" 
d="M968 700h295l-191 -700h-334l-81 348h-26l-81 -348h-334l-191 700h295l69 -405h19l94 405h284l94 -405h19zM692 750l-41 113h-14l-42 -113h-248l143 208h307l143 -208h-248z" />
    <glyph glyph-name="wdieresis" unicode="&#x1e85;" horiz-adv-x="1288" 
d="M968 700h295l-191 -700h-334l-81 348h-26l-81 -348h-334l-191 700h295l69 -405h19l94 405h284l94 -405h19zM503 989c69 0 125 -56 125 -125s-56 -125 -125 -125s-125 56 -125 125s56 125 125 125zM784 989c69 0 125 -56 125 -125s-56 -125 -125 -125s-125 56 -125 125
s56 125 125 125z" />
    <glyph glyph-name="wgrave" unicode="&#x1e81;" horiz-adv-x="1288" 
d="M968 700h295l-191 -700h-334l-81 348h-26l-81 -348h-334l-191 700h295l69 -405h19l94 405h284l94 -405h19zM651 958l76 -208h-181l-143 208h248z" />
    <glyph glyph-name="yacute" unicode="&#xfd;" horiz-adv-x="825" 
d="M800 700l-254 -504v-196h-267v196l-254 504h286l88 -252h27l88 252h286zM398 958h247l-143 -208h-181z" />
    <glyph glyph-name="ycircumflex" unicode="&#x177;" horiz-adv-x="825" 
d="M800 700l-254 -504v-196h-267v196l-254 504h286l88 -252h27l88 252h286zM461 750l-41 113h-14l-42 -113h-248l143 208h307l143 -208h-248z" />
    <glyph glyph-name="ydieresis" unicode="&#xff;" horiz-adv-x="825" 
d="M800 700l-254 -504v-196h-267v196l-254 504h286l88 -252h27l88 252h286zM272 989c69 0 125 -56 125 -125s-56 -125 -125 -125s-125 56 -125 125s56 125 125 125zM553 989c69 0 125 -56 125 -125s-56 -125 -125 -125s-125 56 -125 125s56 125 125 125z" />
    <glyph glyph-name="ygrave" unicode="&#x1ef3;" horiz-adv-x="825" 
d="M800 700l-254 -504v-196h-267v196l-254 504h286l88 -252h27l88 252h286zM419 958l76 -208h-181l-143 208h248z" />
    <glyph glyph-name="zacute" unicode="&#x17a;" horiz-adv-x="770" 
d="M711 441l-300 -190v-13h319v-238h-690v258l290 190v14h-271v238h652v-259zM376 958h247l-143 -208h-181z" />
    <glyph glyph-name="zcaron" unicode="&#x17e;" horiz-adv-x="770" 
d="M711 441l-300 -190v-13h319v-238h-690v258l290 190v14h-271v238h652v-259zM445 958h248l-143 -208h-307l-143 208h248l42 -114h14z" />
    <glyph glyph-name="zdotaccent" unicode="&#x17c;" horiz-adv-x="770" 
d="M711 441l-300 -190v-13h319v-238h-690v258l290 190v14h-271v238h652v-259zM401 989c69 0 125 -56 125 -125s-56 -125 -125 -125s-125 56 -125 125s56 125 125 125z" />
    <glyph glyph-name="Eth" unicode="&#xd0;" horiz-adv-x="832" 
d="M436 700c240 0 366 -134 366 -350s-126 -350 -366 -350h-379v279h-77v143h77v278h379zM399 240c89 0 126 45 126 110s-37 111 -126 111h-76v-39h109v-143h-109v-39h76z" />
    <glyph glyph-name="ellipsis" unicode="&#x2026;" horiz-adv-x="970" 
d="M155 231c69 0 125 -55 125 -124s-56 -125 -125 -125s-125 56 -125 125s56 124 125 124zM485 231c69 0 125 -55 125 -124s-56 -125 -125 -125s-125 56 -125 125s56 124 125 124zM815 231c69 0 125 -55 125 -124s-56 -125 -125 -125s-125 56 -125 125s56 124 125 124z" />
    <glyph glyph-name="longs" unicode="&#x17f;" horiz-adv-x="778" 
d="M456 777c220 0 292 -103 292 -304h-238c0 47 -19 74 -54 74c-43 0 -55 -24 -55 -82v-465h-248v239h-143v219h143v7c0 227 63 312 303 312z" />
    <glyph glyph-name="A" unicode="A" horiz-adv-x="864" 
d="M553 0l-26 111h-190l-26 -111h-286l210 700h394l210 -700h-286zM385 320h94l-33 142h-28z" />
    </font>
</defs>
</svg>
